<?xml version="1.0" standalone="no"?>
<!DOCTYPE svg PUBLIC "-//W3C//DTD SVG 1.1//EN" "http://www.w3.org/Graphics/SVG/1.1/DTD/svg11.dtd" >
<svg xmlns="http://www.w3.org/2000/svg">
<metadata></metadata>
<defs>
<font id="dosisregular" horiz-adv-x="1130" >
<font-face units-per-em="2048" ascent="1638" descent="-410" />
<missing-glyph horiz-adv-x="409" />
<glyph unicode="&#xfb01;" horiz-adv-x="1036" d="M129 51v1120q0 158 114.5 275t311.5 117q117 0 216 -38t99 -89q0 -23 -16 -48.5t-37 -25.5q-12 0 -42 19.5t-85 40t-129 20.5q-152 0 -225.5 -82t-73.5 -184v-207h260q20 0 33.5 -16.5t13.5 -37.5q0 -25 -13 -41t-34 -16h-260v-807q0 -23 -20.5 -37t-48.5 -14 q-27 0 -45.5 14t-18.5 37zM776 53v867q0 20 18.5 34.5t47 14.5t48 -14.5t19.5 -34.5v-867q0 -20 -20.5 -36.5t-47 -16.5t-46 16.5t-19.5 36.5z" />
<glyph unicode="&#xfb02;" horiz-adv-x="1054" d="M129 51v1120q0 176 131 284t311 108q96 0 188.5 -35t149.5 -105v-1370q0 -20 -19.5 -36.5t-47.5 -16.5q-27 0 -46.5 16.5t-19.5 36.5v1321q-80 80 -209 80q-123 0 -214 -77t-91 -201v-207h260q20 0 33.5 -16.5t13.5 -37.5q0 -25 -13 -41t-34 -16h-260v-807 q0 -23 -20.5 -37t-48.5 -14q-27 0 -45.5 14t-18.5 37z" />
<glyph horiz-adv-x="0" />
<glyph unicode="&#xd;" horiz-adv-x="681" />
<glyph horiz-adv-x="0" />
<glyph horiz-adv-x="0" />
<glyph unicode=" "  horiz-adv-x="409" />
<glyph unicode="&#x09;" horiz-adv-x="409" />
<glyph unicode="&#xa0;" horiz-adv-x="409" />
<glyph unicode="!" horiz-adv-x="419" d="M117 82q0 41 26.5 68.5t67.5 27.5q39 0 65.5 -27.5t26.5 -68.5q0 -37 -27.5 -65.5t-64.5 -28.5q-41 0 -67.5 27.5t-26.5 66.5zM131 1444q0 37 22.5 58.5t55.5 21.5t55.5 -21.5t22.5 -58.5q0 -168 -11.5 -529.5t-11.5 -529.5q0 -23 -17.5 -35t-37.5 -12q-53 0 -53 47 q0 168 -12.5 529.5t-12.5 529.5z" />
<glyph unicode="&#x22;" horiz-adv-x="552" d="M78 1528q0 18 20.5 31.5t42.5 13.5q25 0 46.5 -13.5t21.5 -31.5l-21 -301q0 -47 -47 -47q-43 0 -43 47zM344 1528q0 18 20.5 31.5t43.5 13.5q25 0 46 -13.5t21 -31.5l-20 -301q0 -47 -47 -47q-43 0 -43 47z" />
<glyph unicode="#" horiz-adv-x="1193" d="M53 569q0 23 11.5 38.5t29.5 15.5h225l50 327h-197q-49 0 -49 54q0 51 41 51h225l60 375q6 31 51 30q66 0 65 -59l-55 -346h260l59 375q6 31 52 30q66 0 65 -59l-55 -346h201q18 0 34.5 -14.5t16.5 -36.5q0 -20 -13.5 -37t-29.5 -17h-226l-53 -327h201q18 0 34.5 -15.5 t16.5 -38.5q0 -20 -13 -35.5t-30 -15.5h-227l-64 -407q-10 -41 -57 -41q-27 0 -45.5 15t-18.5 44l60 389h-256l-64 -405q-2 -20 -19 -31.5t-36 -11.5q-27 0 -45 15t-18 44l57 389h-195q-49 0 -49 51zM440 623h258l52 327h-258z" />
<glyph unicode="$" horiz-adv-x="1021" d="M80 227q0 25 19.5 50.5t41.5 25.5q14 0 39 -24l58 -58q31 -31 98 -57.5t153 -28.5v596l-55 21l-51 18q-41 16 -55 25l-45 24q-35 16 -48.5 30.5t-38 37t-34.5 45.5l-23 51q-12 29 -17 62.5t-5 72.5q0 176 107.5 259t264.5 93v64q0 16 13.5 27.5t34.5 11.5 q16 0 31.5 -12.5t15.5 -26.5v-59q119 -4 215 -40t96 -85q0 -25 -17.5 -50.5t-41.5 -25.5q-6 0 -84 36t-168 40v-508q78 -29 129 -55.5t106 -74.5t84 -123t29 -175q0 -178 -93.5 -279.5t-254.5 -122.5v-80q0 -14 -15.5 -26t-31.5 -12q-20 0 -34 11t-14 27v74 q-176 2 -292.5 77.5t-116.5 143.5zM246 1130q0 -109 62.5 -162t185.5 -96v476q-248 -21 -248 -218zM578 139q223 35 223 262q0 123 -57.5 187.5t-165.5 109.5v-559z" />
<glyph unicode="%" horiz-adv-x="1550" d="M82 952v312q0 121 69.5 177t184.5 56t184.5 -56.5t69.5 -176.5v-312q0 -121 -69.5 -177t-184.5 -56t-184.5 56t-69.5 177zM186 952q0 -141 150 -141q152 0 151 141v312q0 141 -151 141q-150 0 -150 -141v-312zM340 -4q0 12 6 24l780 1530q10 25 41 25q20 0 39 -16.5 t19 -38.5q0 -14 -6 -27l-777 -1518q-16 -31 -49 -30q-20 0 -36.5 15.5t-16.5 35.5zM961 227v312q0 119 69.5 176t184 57t184 -57.5t69.5 -175.5v-312q0 -121 -69.5 -177t-184 -56t-184 56t-69.5 177zM1065 227q0 -141 149 -141q152 0 152 141v312q0 141 -152 141 q-150 0 -149 -141v-312z" />
<glyph unicode="&#x26;" horiz-adv-x="1249" d="M70 416q0 145 79.5 249.5t198.5 157.5q-80 92 -123 174t-43 187q0 162 106.5 255t264.5 93q150 0 242 -69.5t92 -127.5q0 -27 -18.5 -44t-45.5 -17q-16 0 -37.5 22.5t-43 50t-70.5 50t-113 22.5q-111 0 -174 -66.5t-63 -176.5q0 -68 30.5 -135.5t64.5 -109.5t95 -110 l416 -454q59 135 69 372q2 31 14.5 43.5t47.5 12.5q57 0 57 -72q0 -248 -102 -449l188 -202q12 -14 12 -29q0 -23 -19 -40t-42 -17q-20 0 -39 18l-166 178q-150 -203 -409 -202q-215 0 -342 127t-127 309zM207 428q0 -137 94 -231.5t256 -94.5q205 0 307 166l-440 469 q-45 -27 -73.5 -48t-66.5 -59t-57.5 -89.5t-19.5 -112.5z" />
<glyph unicode="'" horiz-adv-x="286" d="M78 1528q0 18 20.5 31.5t42.5 13.5q25 0 46.5 -13.5t21.5 -31.5l-21 -301q0 -47 -47 -47q-43 0 -43 47z" />
<glyph unicode="(" horiz-adv-x="612" d="M127 309v887q0 156 111.5 266.5t269.5 110.5q66 0 65 -60q0 -27 -14 -45t-35 -18q-119 0 -190.5 -77t-71.5 -177v-887q0 -88 43 -141t97.5 -69.5t121.5 -16.5q49 0 49 -61.5t-67 -61.5q-166 0 -272.5 92t-106.5 258z" />
<glyph unicode=")" horiz-adv-x="612" d="M39 20.5q0 61.5 49 61.5q68 0 122 16.5t97 69.5t43 141v887q0 100 -71.5 177t-190.5 77q-20 0 -34.5 17.5t-14.5 45.5q0 59 65 60q158 0 269.5 -110.5t111.5 -266.5v-887q0 -166 -106.5 -258t-272.5 -92q-67 0 -67 61.5z" />
<glyph unicode="*" horiz-adv-x="882" d="M68 1212q0 23 16 41.5t41 18.5q8 0 14 -2l258 -90l-10 266q2 51 55.5 51t55.5 -51l-11 -268l258 92q6 2 19 2q20 0 35.5 -19.5t15.5 -42.5q0 -39 -35 -47l-256 -73l166 -224q8 -10 8 -28q0 -25 -18 -41.5t-43 -16.5q-27 0 -39 21l-156 229l-155 -231q-12 -18 -35 -19 q-20 0 -43 15.5t-23 40.5q0 16 13 32l163 217l-260 78q-34 8 -34 49z" />
<glyph unicode="+" horiz-adv-x="882" d="M63 492q0 27 14.5 44t35.5 17h270v266q0 20 17.5 36.5t42 16.5t42 -16t17.5 -37v-266h266q20 0 36.5 -18.5t16.5 -43t-16.5 -41t-36.5 -16.5h-266v-270q0 -23 -16.5 -36t-43.5 -13q-25 0 -42 14t-17 35v270h-270q-50 1 -50 58z" />
<glyph unicode="," horiz-adv-x="350" d="M82 82q0 41 26.5 68.5t65.5 27.5q37 0 65.5 -26.5t28.5 -69.5q0 -33 -78 -229q-12 -25 -40 -25q-18 0 -34 11t-16 28q0 12 2 20l41 107q-61 25 -61 88z" />
<glyph unicode="-" horiz-adv-x="845" d="M106 492q0 27 14.5 44t37.5 17h532q20 0 35.5 -17.5t15.5 -43.5q0 -25 -15 -41.5t-36 -16.5h-532q-52 1 -52 58z" />
<glyph unicode="." horiz-adv-x="350" d="M82 82q0 41 26.5 68.5t67.5 27.5q37 0 64.5 -28.5t27.5 -67.5q0 -37 -27.5 -65.5t-64.5 -28.5q-41 0 -67.5 27.5t-26.5 66.5z" />
<glyph unicode="/" horiz-adv-x="970" d="M41 -4q0 12 6 24l780 1530q10 25 41 25q20 0 40 -16.5t20 -38.5q0 -16 -8 -27l-777 -1518q-12 -31 -49 -30q-20 0 -36.5 15.5t-16.5 35.5z" />
<glyph unicode="0" horiz-adv-x="1089" d="M119 426v635q0 225 115.5 330.5t310 105.5t310.5 -105.5t116 -330.5v-635q0 -227 -116 -332.5t-310.5 -105.5t-310 105.5t-115.5 332.5zM254 426q0 -313 291 -313t291 313v635q0 311 -291 311t-291 -311v-635zM471 741q0 33 21.5 53.5t54.5 20.5q31 0 52.5 -20.5 t21.5 -53.5q0 -31 -21.5 -53t-52.5 -22q-33 0 -54.5 22t-21.5 53z" />
<glyph unicode="1" horiz-adv-x="477" d="M27 1169q0 35 30 62l168 237q23 31 51 31q23 0 41.5 -14.5t18.5 -36.5v-1395q0 -25 -20.5 -39t-47.5 -14q-29 0 -48 14.5t-19 38.5v1215l-82 -133q-16 -25 -39 -25t-38 17t-15 42z" />
<glyph unicode="2" horiz-adv-x="972" d="M70 53v199q0 94 71.5 182t173.5 162l201 145q102 74 174 167t72 192q0 106 -73 188t-204 82q-111 0 -179 -62.5t-68 -179.5q0 -23 -19.5 -39t-52.5 -16q-61 0 -62 84q0 147 111 243.5t274 96.5q176 0 292 -112.5t116 -280.5q0 -102 -51 -196.5t-127 -160t-166 -133.5 l-166 -118q-76 -51 -127 -116t-51 -128v-127h653q20 0 34.5 -18.5t14.5 -43t-14 -44t-35 -19.5h-729q-23 0 -43 15t-20 38z" />
<glyph unicode="3" horiz-adv-x="997" d="M57 326q0 41 14.5 56t49.5 15q70 0 69 -57q0 -84 69 -155.5t220 -71.5q295 0 295 307v39q0 137 -76.5 204.5t-214.5 67.5q-53 0 -53 57q0 59 51 60q129 0 192.5 58.5t63.5 203.5q0 135 -59.5 199.5t-188.5 64.5q-143 0 -202.5 -66.5t-59.5 -152.5q0 -66 -65 -65 q-39 0 -54.5 16t-15.5 61q0 49 18.5 100.5t59.5 105.5t125 89t199 35q375 0 374 -360q0 -133 -46 -221.5t-122 -124.5q209 -84 209 -332v-39q0 -223 -117.5 -327.5t-310.5 -104.5q-203 0 -313.5 104.5t-110.5 233.5z" />
<glyph unicode="4" horiz-adv-x="909" d="M16 408q0 20 9 34l514 1014q20 41 63 41q23 0 44.5 -16.5t21.5 -38.5q0 -12 -6 -27l-474 -934h402v396q0 51 67 51q27 0 47.5 -13.5t20.5 -37.5v-396h113q25 0 38 -19.5t13 -43.5q0 -27 -14.5 -46.5t-36.5 -19.5h-113v-299q0 -25 -20.5 -39t-47.5 -14q-29 0 -48 14.5 t-19 38.5v299h-520q-54 1 -54 56z" />
<glyph unicode="5" horiz-adv-x="970" d="M57 336q0 68 66 67q70 0 70 -57q0 -109 81.5 -171t206.5 -62q139 0 215 76.5t76 232.5v39q0 152 -75.5 227.5t-213.5 75.5h-284q-70 0 -70 51q0 4 1 20.5t1 20.5l41 590q6 51 43 51h573q45 0 46 -61q0 -63 -46 -64h-495l-33 -491h223q195 0 309.5 -100.5t114.5 -319.5 v-39q0 -223 -115.5 -328.5t-308.5 -105.5q-197 0 -311.5 100.5t-114.5 247.5z" />
<glyph unicode="6" horiz-adv-x="1058" d="M119 426v635q0 225 116.5 330.5t313 105.5t309.5 -103.5t113 -246.5q0 -61 -64 -62q-72 0 -71 56q0 104 -84 167.5t-207 63.5q-291 0 -291 -311v-313q100 135 309 135q408 0 408 -408v-49q0 -227 -116 -332.5t-310.5 -105.5t-310 105.5t-115.5 332.5zM254 420 q0 -311 291 -311t291 311v49q0 297 -291 297t-291 -279v-67z" />
<glyph unicode="7" horiz-adv-x="940" d="M55 1137v309q0 18 19.5 34.5t42.5 16.5h727q23 0 43 -16.5t20 -34.5v-176q0 -29 -20 -60l-608 -1187q-12 -27 -45 -27t-57.5 18.5t-24.5 46.5q0 8 8 29l612 1172v110h-582v-235q0 -20 -20 -36t-47 -16q-29 0 -48.5 16t-19.5 36z" />
<glyph unicode="8" horiz-adv-x="1028" d="M88 410v24q0 293 223 383q-182 76 -182 322q0 358 385 358t385 -358q0 -246 -180 -322q221 -88 221 -383v-24q0 -217 -116.5 -319.5t-309 -102.5t-309.5 102.5t-117 319.5zM223 420q0 -156 77 -235t216 -79t214 79t75 235v29q0 305 -291 305t-291 -305v-29zM262 1128 q0 -254 252 -254q254 0 254 254q0 250 -254 250q-252 0 -252 -250z" />
<glyph unicode="9" horiz-adv-x="1058" d="M88 338q0 63 64 63q70 0 69 -57q0 -104 84 -167.5t207 -63.5q293 0 293 313v313q-98 -137 -309 -137q-408 0 -408 410v49q0 225 115.5 330.5t308.5 105.5q195 0 311.5 -105.5t116.5 -330.5v-635q0 -227 -117.5 -332.5t-312.5 -105.5q-197 0 -309.5 103.5t-112.5 246.5z M223 1016q0 -156 74 -226.5t217 -70.5q291 0 291 278v68q0 158 -77 235.5t-216 77.5q-289 0 -289 -313v-49z" />
<glyph unicode=":" horiz-adv-x="415" d="M115 82q0 41 26.5 68.5t67.5 27.5q37 0 64.5 -28.5t27.5 -67.5q0 -37 -27.5 -65.5t-64.5 -28.5q-41 0 -67.5 27.5t-26.5 66.5zM115 770q0 41 26.5 68.5t67.5 27.5q37 0 64.5 -28.5t27.5 -67.5q0 -37 -27.5 -65.5t-64.5 -28.5q-41 0 -67.5 27.5t-26.5 66.5z" />
<glyph unicode=";" horiz-adv-x="428" d="M119 82q0 41 26.5 68.5t65.5 27.5q37 0 65.5 -26.5t28.5 -69.5q0 -33 -78 -229q-12 -25 -41 -25q-18 0 -33.5 11t-15.5 28q0 12 2 20l41 107q-61 25 -61 88zM125 770q0 41 26.5 68.5t67.5 27.5q37 0 64.5 -28.5t27.5 -67.5q0 -37 -27.5 -65.5t-64.5 -28.5 q-41 0 -67.5 27.5t-26.5 66.5z" />
<glyph unicode="&#x3c;" horiz-adv-x="819" d="M51 567q0 35 33 58l551 364q10 8 24 8q23 0 43.5 -19.5t20.5 -43.5q0 -29 -23 -43l-487 -324l487 -321q23 -14 23 -43q0 -25 -20.5 -44.5t-43.5 -19.5q-14 0 -24 8l-551 365q-33 20 -33 55z" />
<glyph unicode="=" horiz-adv-x="888" d="M135 340q0 25 14.5 42t34.5 17h518q20 0 36 -17t16 -42t-15.5 -42t-36.5 -17h-518q-23 0 -36 16t-13 43zM135 756q0 25 14.5 42t34.5 17h518q20 0 36 -17.5t16 -42t-15.5 -42t-36.5 -17.5h-518q-23 0 -36 16.5t-13 43.5z" />
<glyph unicode="&#x3e;" horiz-adv-x="817" d="M96 203q0 29 23 43l487 321l-487 324q-23 14 -23 43q0 25 20.5 44t43.5 19q14 0 24 -8l551 -364q33 -23 33 -58t-33 -55l-551 -365q-10 -8 -24 -8q-23 0 -43.5 19.5t-20.5 44.5z" />
<glyph unicode="?" horiz-adv-x="815" d="M47 1366q0 53 93 105.5t220 52.5q184 0 286 -102.5t102 -262.5q0 -88 -34 -169t-72 -124t-95.5 -97t-71.5 -73q-47 -51 -59.5 -114.5t-12.5 -196.5q0 -47 -55 -47t-55 59q0 158 22.5 233t65.5 124q16 16 72.5 68t87 87t60.5 100.5t30 139.5q0 123 -72 192.5t-205 69.5 q-80 0 -132 -25.5t-78.5 -50t-45 -24.5t-35 15t-16.5 40zM254 82q0 39 27.5 67.5t66.5 28.5t66.5 -28.5t27.5 -67.5q0 -37 -27.5 -65.5t-66.5 -28.5t-66.5 28.5t-27.5 65.5z" />
<glyph unicode="@" horiz-adv-x="1466" d="M109 444q0 309 159.5 504t483.5 195q303 0 466.5 -171t163.5 -489q0 -117 -21.5 -206t-79.5 -150t-146 -61q-76 0 -131.5 38.5t-67.5 94.5q-59 -59 -113.5 -87t-138.5 -28q-115 0 -185.5 54.5t-70.5 168.5q0 131 100.5 181.5t300.5 50.5h89v39q0 90 -48.5 132t-152.5 42 q-78 0 -133.5 -26t-61.5 -26q-18 0 -30.5 19.5t-12.5 38.5q0 41 82 70.5t176 29.5q135 0 213 -68.5t78 -193.5v-340q6 -45 40 -73.5t75 -28.5q137 0 137 315q0 276 -133 424.5t-399 148.5q-147 0 -255 -48t-168.5 -134t-88 -188.5t-27.5 -225.5q0 -115 24.5 -211t79 -177 t149.5 -127t224 -46q106 0 196.5 32t92.5 32q18 0 30.5 -15.5t12.5 -29.5q0 -43 -112.5 -79t-233.5 -36q-238 0 -400.5 166.5t-162.5 488.5zM543 307q0 -68 43 -100.5t112 -32.5q96 0 160 53.5t64 114.5v113h-84q-147 0 -221 -30t-74 -118z" />
<glyph unicode="A" horiz-adv-x="1105" d="M43 57q0 10 2 15l428 1390q14 47 79.5 47t82.5 -47l426 -1390q0 -2 1 -6.5t1 -6.5q0 -25 -26.5 -42t-55.5 -17q-39 0 -51 35l-94 315h-568l-94 -315q-8 -35 -53 -35q-29 0 -53.5 16t-24.5 41zM303 467h498l-248 825z" />
<glyph unicode="B" horiz-adv-x="1101" d="M156 51v1395q0 25 18.5 38t42.5 13h336q94 0 163.5 -14.5t130 -51t92.5 -107.5t32 -175q0 -127 -47 -215t-127 -123q102 -41 156.5 -123t54.5 -229v-37q0 -221 -111 -321.5t-295 -100.5h-385q-29 0 -45 15.5t-16 35.5zM289 125h297q287 0 286 303v35q0 291 -286 291h-297 v-629zM289 870h268q145 0 212 60.5t67 204.5q0 133 -74 185t-213 52h-260v-502z" />
<glyph unicode="C" horiz-adv-x="1071" d="M139 426v635q0 223 120 329.5t310 106.5q195 0 308.5 -99.5t113.5 -242.5q0 -49 -15 -65.5t-52 -16.5q-63 0 -68 51q-2 31 -8 59.5t-24.5 64.5t-48.5 62.5t-83 44t-123 17.5q-295 0 -295 -311v-635q0 -313 304 -313q86 0 143 23.5t83.5 68.5t36 76.5t15.5 83.5 q6 53 68 53q37 0 52 -17.5t15 -66.5q0 -145 -115.5 -245.5t-312.5 -100.5q-188 0 -306 106.5t-118 331.5z" />
<glyph unicode="D" horiz-adv-x="1146" d="M156 51v1397q0 20 17 34.5t44 14.5h363q195 0 311.5 -105.5t116.5 -330.5v-623q0 -227 -117 -332.5t-311 -105.5h-363q-27 0 -44 15.5t-17 35.5zM291 125h289q139 0 215.5 79t76.5 234v623q0 156 -76.5 233.5t-215.5 77.5h-289v-1247z" />
<glyph unicode="E" horiz-adv-x="1040" d="M156 53v1393q0 25 18.5 38t42.5 13h729q51 0 51 -59q0 -27 -13 -46.5t-38 -19.5h-655v-563h321q25 0 38.5 -17.5t13.5 -43.5q0 -55 -52 -56h-321v-567h655q23 0 37 -18.5t14 -45.5q0 -61 -51 -61h-729q-25 0 -43 14t-18 39z" />
<glyph unicode="F" horiz-adv-x="1011" d="M156 51v1395q0 25 18.5 38t42.5 13h725q25 0 38 -17.5t13 -41.5q0 -27 -13 -46.5t-38 -19.5h-651v-563h323q23 0 36.5 -17.5t13.5 -43.5q0 -55 -50 -56h-323v-641q0 -25 -20.5 -38t-47.5 -13q-67 0 -67 51z" />
<glyph unicode="G" horiz-adv-x="1107" d="M139 426v635q0 225 116 330.5t308 105.5q195 0 311.5 -99.5t116.5 -254.5q0 -70 -67 -70q-66 0 -68 51q-29 248 -291 248q-291 0 -291 -311v-635q0 -158 76 -235.5t215.5 -77.5t215 77.5t75.5 235.5v244h-274q-23 0 -36.5 17.5t-13.5 41.5q0 23 13.5 40t36.5 17h360 q49 0 49 -53v-307q0 -227 -115.5 -332.5t-310 -105.5t-310.5 105.5t-116 332.5z" />
<glyph unicode="H" horiz-adv-x="1173" d="M156 53v1395q0 49 67.5 49t67.5 -49v-612h592v612q0 49 67.5 49t67.5 -49v-1395q0 -25 -20.5 -39t-47.5 -14q-29 0 -48 14.5t-19 38.5v666h-592v-666q0 -25 -20.5 -39t-47.5 -14q-29 0 -48 14t-19 39z" />
<glyph unicode="I" horiz-adv-x="446" d="M156 53v1395q0 49 67.5 49t67.5 -49v-1395q0 -25 -20.5 -39t-47.5 -14q-29 0 -48 14t-19 39z" />
<glyph unicode="J" horiz-adv-x="1048" d="M47 348q0 70 66 70q70 0 69 -53q0 -117 79 -184.5t212 -67.5q139 0 215 77.5t76 235.5v946h-289q-25 0 -38 19.5t-13 46.5q0 25 13.5 42t37.5 17h361q63 0 63 -51v-1020q0 -227 -115.5 -332.5t-306.5 -105.5q-195 0 -312.5 101t-117.5 259z" />
<glyph unicode="K" horiz-adv-x="1069" d="M156 53v1395q0 49 67.5 49t67.5 -49v-725l592 754q14 20 43 20q25 0 49 -22.5t24 -47.5q0 -18 -10 -30l-440 -547l504 -758q8 -16 8 -26q0 -27 -24.5 -48.5t-53.5 -21.5t-51 31l-473 710l-168 -213v-471q0 -25 -20.5 -39t-47.5 -14q-29 0 -48 14t-19 39z" />
<glyph unicode="L" horiz-adv-x="948" d="M156 53v1395q0 49 67.5 49t67.5 -49v-1323h583q45 0 46 -62q0 -63 -46 -63h-657q-25 0 -43 14t-18 39z" />
<glyph unicode="M" horiz-adv-x="1368" d="M156 53v1379q0 65 65 65h2q59 0 109 -94l352 -680l352 680q49 94 109 94q68 0 67 -65v-1379q0 -25 -19 -39t-48 -14q-27 0 -47.5 14.5t-20.5 38.5v1151l-340 -643q-23 -43 -55 -43q-31 0 -53 43l-338 649v-1157q0 -25 -20.5 -39t-47.5 -14q-29 0 -48 14t-19 39z" />
<glyph unicode="N" horiz-adv-x="1173" d="M156 53v1393q0 51 67 51q57 0 107 -94l553 -1090v1135q0 49 67.5 49t67.5 -49v-1395q0 -25 -20.5 -39t-47.5 -14q-51 0 -90 78l-569 1108v-1133q0 -25 -20.5 -39t-47.5 -14q-29 0 -48 14t-19 39z" />
<glyph unicode="O" d="M139 426v635q0 225 116 330.5t310.5 105.5t310 -105.5t115.5 -330.5v-635q0 -227 -115.5 -332.5t-310 -105.5t-310.5 105.5t-116 332.5zM274 426q0 -313 291 -313t291 313v635q0 311 -291 311t-291 -311v-635z" />
<glyph unicode="P" horiz-adv-x="1079" d="M156 53v1395q0 45 57 49h377q193 0 307.5 -104.5t114.5 -329.5v-21q0 -225 -116 -330.5t-310 -105.5h-295v-553q0 -25 -20.5 -39t-47.5 -14q-29 0 -48 14t-19 39zM291 723h295q139 0 215 78t76 235v25q0 311 -291 311h-295v-649z" />
<glyph unicode="Q" d="M139 426v635q0 225 116 330.5t310.5 105.5t310 -105.5t115.5 -330.5v-635q0 -211 -100 -317.5t-273 -118.5v-162q0 -25 -15 -38t-36 -13q-23 0 -38 13t-15 38v162q-174 12 -274.5 117.5t-100.5 318.5zM274 426q0 -281 240 -307v151q0 49 53 49q51 0 51 -49v-151 q238 29 238 307v635q0 311 -291 311t-291 -311v-635z" />
<glyph unicode="R" horiz-adv-x="1083" d="M156 53v1395q0 45 51 49h362q199 0 321 -94t122 -309q0 -340 -320 -396l316 -606q8 -10 8 -26q0 -27 -24.5 -48.5t-53.5 -21.5q-37 0 -72 72l-315 614h-260v-629q0 -25 -20.5 -39t-47.5 -14q-29 0 -48 14t-19 39zM291 799h278q307 0 308 288q0 285 -308 285h-278v-573z " />
<glyph unicode="S" horiz-adv-x="1011" d="M74 207q0 25 19.5 50.5t41.5 25.5q16 0 41 -27l57 -59q31 -33 97.5 -58.5t154.5 -25.5q145 0 225.5 72.5t80.5 209.5q0 92 -38 156.5t-98 99.5q-57 37 -131 66l-147 57q-74 29 -132.5 69t-96 112.5t-37.5 172.5q0 106 39.5 183.5t107.5 116t138.5 56t148.5 17.5 q125 0 234.5 -35.5t109.5 -89.5q0 -25 -17.5 -50.5t-42.5 -25.5q-12 0 -46.5 19.5t-97 39t-142.5 19.5q-129 0 -213 -55t-84 -182q0 -88 50 -147.5t126 -86t164 -63.5t163.5 -79t126 -133t50.5 -224q0 -211 -117 -316.5t-315 -105.5q-178 0 -299 76.5t-121 144.5z" />
<glyph unicode="T" horiz-adv-x="985" d="M31 1434q0 25 13 44t38 19h821q25 0 38 -18.5t13 -42.5q0 -27 -13 -46.5t-38 -19.5h-342v-1317q0 -25 -20.5 -39t-46.5 -14q-29 0 -48.5 14.5t-19.5 38.5v1317h-344q-23 0 -37 18.5t-14 45.5z" />
<glyph unicode="U" horiz-adv-x="1159" d="M150 426v1022q0 49 67.5 49t67.5 -49v-1022q0 -156 76.5 -234.5t218 -78.5t218 78.5t76.5 234.5v1022q0 49 68 49t68 -49v-1022q0 -227 -118 -332.5t-312.5 -105.5t-312 105.5t-117.5 332.5z" />
<glyph unicode="V" horiz-adv-x="1101" d="M41 1440q0 25 24.5 41t53.5 16q45 0 53 -35l379 -1257l377 1257q12 35 51 35q29 0 55.5 -17.5t26.5 -41.5q0 -2 -1 -6.5t-1 -6.5l-426 -1388q-14 -49 -82 -49q-66 0 -80 49l-428 1388q-2 5 -2 15z" />
<glyph unicode="W" horiz-adv-x="1611" d="M45 1442q0 23 24.5 39t53.5 16q43 0 53 -35l354 -1257l205 764q10 47 72 47q55 0 70 -47l204 -764l355 1257q10 35 53 35q29 0 53.5 -16.5t24.5 -38.5q0 -10 -2 -17l-402 -1388q-16 -49 -82 -49q-68 0 -80 49l-194 723l-195 -723q-12 -49 -79.5 -49t-81.5 49l-404 1388 q-2 7 -2 17z" />
<glyph unicode="X" horiz-adv-x="991" d="M49 63q0 16 8 33l353 654l-347 649q-12 23 -12 43q0 25 23.5 42t56.5 17t70 -69l295 -564l295 564q37 70 69 70t56 -18t24 -42q0 -20 -12 -43l-348 -649l354 -654q8 -16 8 -33q0 -27 -25.5 -47t-54.5 -20q-31 0 -63 65l-303 574l-303 -574q-33 -65 -63 -65h-1 q-29 0 -54.5 20t-25.5 47z" />
<glyph unicode="Y" horiz-adv-x="1087" d="M39 1440q0 25 23.5 41t50.5 16q33 0 53 -41l377 -747l379 747q20 41 53 41q27 0 50.5 -16.5t23.5 -40.5q0 -18 -9 -37l-426 -813q-4 -12 -4 -17v-520q0 -25 -19.5 -39t-47.5 -14q-27 0 -47.5 14.5t-20.5 38.5v520q0 10 -2 17l-424 813q-10 19 -10 37z" />
<glyph unicode="Z" horiz-adv-x="991" d="M49 47q0 23 12 47l682 1278h-618q-23 0 -37 18.5t-14 45.5q0 25 13 43t38 18h743q51 0 52 -43q0 -25 -17 -53l-680 -1276h670q25 0 38 -18.5t13 -43t-13 -44t-38 -19.5h-795q-49 0 -49 47z" />
<glyph unicode="[" horiz-adv-x="620" d="M139 8v1514q0 23 18.5 37t43.5 14h329q23 0 37.5 -18.5t14.5 -41.5q0 -27 -14.5 -45t-37.5 -18h-256v-1370h256q23 0 37.5 -18.5t14.5 -43t-14.5 -43t-37.5 -18.5h-329q-25 0 -43.5 14t-18.5 37z" />
<glyph unicode="\" horiz-adv-x="708" d="M47 1489q0 25 16.5 40t40.5 15q33 0 46 -28l509 -1448q2 -6 3 -17q0 -20 -16.5 -35.5t-39.5 -15.5q-37 0 -49 35l-508 1435q-2 7 -2 19z" />
<glyph unicode="]" horiz-adv-x="620" d="M39 18.5q0 24.5 14.5 43t34.5 18.5h258v1370h-258q-20 0 -34.5 18.5t-14.5 44.5q0 23 13.5 41.5t35.5 18.5h330q25 0 44 -14.5t19 -36.5v-1514q0 -23 -19.5 -37t-43.5 -14h-330q-23 0 -36 18.5t-13 43z" />
<glyph unicode="^" horiz-adv-x="548" d="M0 1266q0 31 27 45l213 114q16 10 34.5 10.5t34.5 -10.5l213 -114q27 -12 27 -47q0 -20 -12.5 -35t-28.5 -15q-2 0 -21 7l-213 112l-213 -114l-18 -7q-16 0 -29.5 17t-13.5 37z" />
<glyph unicode="_" horiz-adv-x="688" d="M-35 -61q0 27 14.5 44t36.5 17h656q20 0 35.5 -17.5t15.5 -43.5q0 -25 -15.5 -41.5t-35.5 -16.5h-656q-51 1 -51 58z" />
<glyph unicode="`" horiz-adv-x="317" d="M0 1378q0 20 14.5 39t34.5 19q8 0 19 -6l227 -125q23 -10 22 -37q0 -23 -16 -40.5t-37 -17.5q-10 0 -20 7l-217 116q-27 12 -27 45z" />
<glyph unicode="a" horiz-adv-x="897" d="M61 256q0 158 122 219.5t356 61.5h104v49q0 113 -59.5 195.5t-182.5 82.5q-82 0 -148.5 -29.5t-70.5 -29.5q-25 0 -39 22.5t-14 49.5q0 39 88 72t189 32q193 0 281.5 -111.5t88.5 -283.5v-533q0 -23 -18.5 -38t-46.5 -15q-27 0 -44.5 15.5t-17.5 37.5v90 q-136 -157 -307 -157h-2q-123 0 -201 68.5t-78 201.5zM195 268q0 -86 49 -128t129 -42q96 0 183 72t87 143v131h-86q-82 0 -138.5 -6t-111.5 -22.5t-83.5 -53.5t-28.5 -94z" />
<glyph unicode="b" horiz-adv-x="991" d="M129 53v1460q0 20 18.5 35t47 15t48 -14.5t19.5 -35.5v-688q37 68 107.5 112t165.5 44q152 0 259 -112.5t107 -270.5v-223q0 -154 -109.5 -271.5t-252.5 -117.5q-92 0 -170 46t-111 111v-90q0 -20 -18.5 -36.5t-45 -16.5t-46 16.5t-19.5 36.5zM262 311q0 -55 77 -128.5 t175 -73.5q102 0 178 81.5t76 184.5v223q0 100 -76 180t-180 80q-98 0 -174 -71.5t-76 -188.5v-287z" />
<glyph unicode="c" horiz-adv-x="841" d="M94 375v219q0 172 100.5 279.5t294.5 107.5q123 0 206 -44t83 -89q0 -23 -18.5 -44.5t-40.5 -21.5q-12 0 -38 18.5t-73 38t-112 19.5q-131 0 -200 -69.5t-69 -194.5v-219q0 -127 69 -196.5t202 -69.5q70 0 118 19t73.5 38.5t39.5 19.5q27 0 44.5 -20.5t17.5 -44.5 q0 -47 -86.5 -91t-212.5 -44q-197 0 -297.5 106.5t-100.5 282.5z" />
<glyph unicode="d" horiz-adv-x="991" d="M92 375v223q0 158 107.5 270.5t259.5 112.5q94 0 164.5 -45t105.5 -111v688q0 20 20.5 35t49 15t46 -14.5t17.5 -35.5v-1460q0 -20 -18.5 -36.5t-44.5 -16.5q-25 0 -44.5 16.5t-19.5 36.5v90q-35 -66 -111.5 -111.5t-168.5 -45.5q-145 0 -254 117.5t-109 271.5zM225 375 q0 -102 76 -184t178 -82q98 0 174 73.5t76 128.5v287q0 117 -74.5 188.5t-173.5 71.5q-104 0 -180 -80t-76 -180v-223z" />
<glyph unicode="e" horiz-adv-x="937" d="M92 375v229q0 154 115 265.5t276 111.5q156 0 269.5 -106.5t113.5 -266.5q0 -57 -13 -92t-43 -49t-54.5 -18.5t-67.5 -4.5h-463v-75q0 -121 87 -194t225 -73q70 0 122 20.5t79.5 41t43.5 20.5q23 0 40.5 -21.5t17.5 -41.5q0 -43 -88 -89t-220 -46q-195 0 -317.5 107.5 t-122.5 281.5zM225 543h410q61 0 81.5 13t20.5 56q0 102 -72.5 180t-183.5 78q-106 0 -181 -73.5t-75 -175.5v-78z" />
<glyph unicode="f" horiz-adv-x="624" d="M129 51v1135q0 154 108.5 265.5t256.5 111.5h51q25 0 41 -18.5t16 -43t-16.5 -42t-40.5 -17.5h-35q-104 0 -175 -73t-73 -173v-227h293q20 0 33.5 -16.5t13.5 -37.5q0 -25 -13.5 -41t-33.5 -16h-293v-807q0 -23 -20.5 -37t-48.5 -14q-27 0 -45.5 14t-18.5 37z" />
<glyph unicode="g" horiz-adv-x="925" d="M51 -203q0 154 174 223q-112 39 -112 140q0 94 102 149q-113 94 -113 258v78q0 150 97.5 243t255.5 93q143 0 239 -86q31 59 70 94t76 35q29 0 45 -16.5t16 -36.5q0 -37 -35 -45q-72 -14 -114 -88q57 -76 57 -193v-78q0 -147 -100.5 -243.5t-255.5 -96.5q-84 0 -158 35 q-63 -35 -64 -80q0 -43 47.5 -65.5t118 -28.5t153.5 -19.5t153.5 -34t117.5 -75.5t47 -143q0 -139 -110.5 -215t-290.5 -76q-184 0 -300 73.5t-116 198.5zM180 -190q0 -84 77 -135.5t208 -51.5q129 0 201.5 51.5t72.5 137.5q0 41 -20.5 71.5t-48 47t-72.5 28.5t-79 16.5 t-85 8.5l-72 8q-182 -57 -182 -182zM231 569q0 -106 60.5 -173.5t165.5 -67.5q100 0 160.5 67.5t60.5 171.5v78q0 102 -60.5 169t-163 67t-163 -66.5t-60.5 -169.5v-76z" />
<glyph unicode="h" horiz-adv-x="1015" d="M129 53v1460q0 20 18.5 35t47 15t48 -14.5t19.5 -35.5v-688q35 66 105.5 111t164.5 45q147 0 255 -112.5t108 -270.5v-545q0 -25 -19.5 -39t-48.5 -14q-25 0 -45 14.5t-20 38.5v545q0 100 -76 180t-178 80q-96 0 -171 -71.5t-75 -188.5v-545q0 -20 -20.5 -36.5t-47 -16.5 t-46 16.5t-19.5 36.5z" />
<glyph unicode="i" horiz-adv-x="391" d="M102 1341.5q0 34.5 27 59t66 24.5q37 0 62.5 -24.5t25.5 -59t-26 -60.5t-62 -26q-39 0 -66 26t-27 60.5zM129 53v867q0 20 18.5 34.5t47 14.5t48 -14.5t19.5 -34.5v-867q0 -20 -20.5 -36.5t-47 -16.5t-46 16.5t-19.5 36.5z" />
<glyph unicode="j" horiz-adv-x="391" d="M-76 -416q0 27 16.5 44.5t41.5 17.5q90 0 118.5 66.5t28.5 199.5v1008q0 23 18.5 36t47 13t48 -14.5t19.5 -34.5v-1008q0 -387 -270 -387q-35 0 -51.5 17t-16.5 42zM102 1341.5q0 34.5 27 59t66 24.5q37 0 62.5 -24.5t25.5 -59t-26 -60.5t-62 -26q-39 0 -66 26t-27 60.5z " />
<glyph unicode="k" horiz-adv-x="933" d="M129 53v1460q0 20 18.5 35t47 15t48 -14.5t19.5 -35.5v-997l500 445q20 12 31 12q25 0 46 -19.5t21 -44t-14 -37.5l-301 -264l354 -518q8 -16 8 -29q0 -23 -22.5 -45t-48.5 -22q-25 0 -41 24l-344 506l-189 -166v-305q0 -20 -19.5 -36.5t-47.5 -16.5q-27 0 -46.5 16.5 t-19.5 36.5z" />
<glyph unicode="l" horiz-adv-x="423" d="M145 53v1460q0 20 18.5 35t47.5 15t48.5 -14.5t19.5 -35.5v-1460q0 -20 -19.5 -36.5t-48.5 -16.5q-27 0 -46.5 16.5t-19.5 36.5z" />
<glyph unicode="m" horiz-adv-x="1597" d="M129 53v867q0 20 18.5 34.5t47.5 14.5q27 0 45 -14.5t18 -34.5v-95q37 68 107.5 112t164.5 44q98 0 176 -56.5t115 -148.5q51 100 135 152.5t177 52.5q139 0 241.5 -104.5t102.5 -278.5v-545q0 -20 -19.5 -36.5t-48.5 -16.5q-27 0 -46.5 16.5t-19.5 36.5v545 q0 121 -70.5 190.5t-162.5 69.5q-94 0 -167 -70.5t-73 -181.5v-555q0 -51 -67 -51q-66 0 -66 51v553q0 109 -68.5 181.5t-164.5 72.5t-169 -70.5t-73 -189.5v-545q0 -20 -20.5 -36.5t-47 -16.5t-46 16.5t-19.5 36.5z" />
<glyph unicode="n" horiz-adv-x="1015" d="M129 53v867q0 23 18.5 36t47.5 13q25 0 43 -14.5t18 -34.5v-95q35 66 106.5 111t167.5 45q147 0 256 -112.5t109 -270.5v-545q0 -25 -20.5 -39t-47.5 -14q-25 0 -45 14.5t-20 38.5v545q0 100 -76 180t-180 80q-96 0 -170 -71.5t-74 -188.5v-545q0 -20 -20.5 -36.5 t-46.5 -16.5q-29 0 -47.5 16.5t-18.5 36.5z" />
<glyph unicode="o" horiz-adv-x="958" d="M90 375v223q0 156 114.5 269.5t272.5 113.5t274.5 -112.5t116.5 -270.5v-223q0 -154 -117.5 -271.5t-273.5 -117.5q-154 0 -270.5 117.5t-116.5 271.5zM223 375q0 -104 75 -185t179 -81q106 0 182 80.5t76 185.5v223q0 100 -76.5 180t-181 80t-179.5 -80t-75 -180v-223z " />
<glyph unicode="p" horiz-adv-x="991" d="M129 -424v1344q0 20 18.5 34.5t47.5 14.5q27 0 45 -14.5t18 -34.5v-95q37 66 108.5 111t165.5 45q152 0 260.5 -112.5t108.5 -270.5v-223q0 -154 -109.5 -271.5t-252.5 -117.5q-90 0 -166 46t-111 111v-567q0 -18 -19.5 -34.5t-47.5 -16.5q-27 0 -46.5 16.5t-19.5 34.5z M262 311q0 -55 77 -128.5t175 -73.5q100 0 177 81.5t77 184.5v223q0 100 -77 180t-181 80q-98 0 -173 -71.5t-75 -188.5v-287z" />
<glyph unicode="q" horiz-adv-x="991" d="M92 375v223q0 158 108.5 270.5t260.5 112.5q94 0 165.5 -45t108.5 -111v95q0 20 17.5 34.5t46 14.5t46 -14.5t17.5 -34.5v-1344q0 -18 -18.5 -34.5t-44.5 -16.5q-29 0 -49.5 16.5t-20.5 34.5v567q-33 -66 -109.5 -111.5t-164.5 -45.5q-145 0 -254 117.5t-109 271.5z M225 375q0 -102 76 -184t178 -82q98 0 174 73.5t76 128.5v287q0 117 -74.5 188.5t-173.5 71.5q-104 0 -180 -80t-76 -180v-223z" />
<glyph unicode="r" horiz-adv-x="677" d="M129 53v867q0 20 18.5 34.5t47.5 14.5q27 0 45 -14.5t18 -34.5v-101q37 68 108.5 115t165.5 47h72q20 0 36.5 -18.5t16.5 -43t-16 -43t-37 -18.5h-72q-106 0 -188 -83t-82 -216v-506q0 -20 -19.5 -36.5t-47.5 -16.5q-27 0 -46.5 16.5t-19.5 36.5z" />
<glyph unicode="s" horiz-adv-x="788" d="M68 133q0 20 14 41t33 21q14 0 44.5 -24t88 -48.5t137.5 -24.5q109 0 160 41t51 105q0 74 -52 118t-126 64t-148.5 45t-127 81t-52.5 150q0 113 81 196t243 83q100 0 187 -31.5t87 -68.5q0 -20 -16.5 -45t-38.5 -25q-6 0 -76 28.5t-141 28.5q-102 0 -153.5 -49 t-51.5 -110q0 -63 52 -100.5t127 -57t149.5 -45t127 -90t52.5 -166.5q0 -123 -87 -193.5t-243 -70.5q-135 0 -228 48t-93 99z" />
<glyph unicode="t" horiz-adv-x="608" d="M125 301v1079q0 20 20.5 35t44.5 15q27 0 47.5 -14.5t20.5 -35.5v-411h264q20 0 33.5 -16.5t13.5 -39t-13 -39t-34 -16.5h-264v-557q0 -100 42 -140t149 -40h57q27 0 44 -17.5t17 -42t-17.5 -43t-43.5 -18.5h-57q-324 0 -324 301z" />
<glyph unicode="u" horiz-adv-x="1015" d="M119 371v547q0 18 19.5 34.5t47.5 16.5q25 0 45.5 -16.5t20.5 -34.5v-547q0 -102 75.5 -182t180 -80t180.5 79.5t76 182.5v549q0 20 20.5 34.5t47 14.5t46 -14.5t19.5 -34.5v-549q0 -154 -115.5 -269.5t-273.5 -115.5q-160 0 -274.5 115.5t-114.5 269.5z" />
<glyph unicode="v" horiz-adv-x="860" d="M31 911q0 25 25.5 43.5t54.5 18.5q37 0 49 -31l270 -737l270 729q16 39 48 39q25 0 53 -18.5t28 -41.5q0 -16 -8 -32l-329 -865q-12 -33 -60 -33l-2 1q-50 0 -61 32l-330 865q-8 12 -8 30z" />
<glyph unicode="w" horiz-adv-x="1366" d="M31 913q0 25 25.5 42.5t54.5 17.5q37 0 47 -31l262 -729l211 666q10 35 52 35h1q43 0 53 -35l203 -674l268 737q6 31 45 31q29 0 54.5 -16.5t25.5 -43.5q0 -18 -8 -30l-319 -867q-10 -32 -51 -32h-3q-39 0 -55 30l-213 666l-211 -655q-12 -41 -59 -41q-43 0 -56 41 l-319 858q-8 16 -8 30z" />
<glyph unicode="x" horiz-adv-x="839" d="M51 51q0 12 8 29l273 409l-266 398q-10 20 -11 26q0 25 28 46.5t54 21.5q29 0 41 -20l242 -375l244 375q12 20 38.5 20t54 -21.5t27.5 -46.5q0 -10 -10 -26l-268 -398l274 -409q8 -12 8 -29q0 -23 -25.5 -44t-53.5 -21q-27 0 -39 20l-250 383l-248 -383q-14 -20 -43 -20 q-25 0 -51.5 21t-26.5 44z" />
<glyph unicode="y" horiz-adv-x="860" d="M29 918q0 25 26.5 44t55.5 19q39 0 47 -29l280 -753l264 753q12 29 46 29q27 0 54 -19.5t27 -46.5q0 -12 -4 -16l-317 -860l-37 -100q-10 -27 -40 -96.5t-50 -100.5l-53 -82q-35 -51 -67 -73.5t-77 -42t-92 -19.5q-61 0 -61 59q0 61 41 62q94 0 175 113.5t122 281.5 l-334 858q-6 11 -6 19z" />
<glyph unicode="z" horiz-adv-x="821" d="M49 53q0 23 21 51l501 748h-452q-20 0 -34.5 17.5t-14.5 39.5q0 25 14 42.5t35 17.5h579q20 0 36 -14.5t16 -39.5q0 -27 -17 -49l-504 -747h496q20 0 34.5 -17.5t14.5 -44.5q0 -23 -14.5 -40t-34.5 -17h-621q-25 0 -40 16.5t-15 36.5z" />
<glyph unicode="{" horiz-adv-x="634" d="M61 788.5q0 28.5 19.5 42t42 14.5t42 11t19.5 33q0 16 -19.5 164.5t-19.5 183.5q0 133 114 234.5t267 101.5q35 0 52.5 -18.5t17.5 -43.5q0 -23 -14.5 -41t-34.5 -18q-106 0 -186 -68.5t-80 -162.5q0 -33 19 -178.5t19 -163.5q0 -33 -25.5 -59.5t-47.5 -33.5 q25 -4 49 -29.5t24 -60.5q0 -20 -19 -200.5t-19 -216.5q0 -102 88 -150.5t178 -48.5q49 0 49 -60q0 -61 -72 -61q-158 0 -268.5 88t-110.5 225q0 37 19.5 218.5t19.5 197.5q0 23 -19.5 33t-42 10t-42 14.5t-19.5 43z" />
<glyph unicode="|" horiz-adv-x="413" d="M139 8v1516q0 20 19.5 34.5t48.5 14.5q27 0 47 -14.5t20 -34.5v-1516q0 -20 -20.5 -35.5t-46.5 -15.5q-29 0 -48.5 15.5t-19.5 35.5z" />
<glyph unicode="}" horiz-adv-x="634" d="M39 20q0 59 49 60q90 0 178 48t88 151q0 37 -19.5 217t-19.5 200q0 35 25 60.5t49 29.5q-23 6 -48.5 33t-25.5 60q0 18 19.5 163.5t19.5 178.5q0 94 -79.5 162.5t-186.5 68.5q-20 0 -34.5 18.5t-14.5 40.5q0 25 17.5 43.5t52.5 18.5q154 0 267 -101.5t113 -234.5 q0 -35 -19 -183.5t-19 -164.5q0 -23 19 -33t42 -11t42 -14.5t19 -42t-19 -43t-42 -14.5t-42 -10t-19 -33q0 -16 19 -197.5t19 -218.5q0 -137 -110.5 -225t-267.5 -88q-72 0 -72 61z" />
<glyph unicode="~" horiz-adv-x="821" d="M94 497.5q0 51.5 60.5 84t119.5 32.5q53 0 135.5 -34.5t135.5 -34.5t92 29.5t51 29.5q18 0 29.5 -15.5t11.5 -31.5q0 -57 -57.5 -87t-114.5 -30q-55 0 -136 36t-136 36q-51 0 -96.5 -33t-55.5 -33q-39 0 -39 51.5z" />
<glyph unicode="&#xa1;" horiz-adv-x="417" d="M115 1430q0 37 27.5 65.5t66.5 28.5q37 0 64.5 -29t27.5 -65q0 -41 -26.5 -69t-65.5 -28t-66.5 28t-27.5 69zM131 68q0 168 12.5 529t12.5 529q0 23 16 35.5t35 12.5q55 0 55 -48q0 -168 12.5 -529t12.5 -529q0 -37 -22.5 -58.5t-57.5 -21.5q-33 0 -54.5 21.5t-21.5 58.5 z" />
<glyph unicode="&#xa2;" horiz-adv-x="845" d="M72 733v39q0 154 79.5 257.5t237.5 125.5v221q0 18 14.5 31.5t35 13.5t35.5 -13t15 -32v-219q113 -2 194 -41t81 -88q0 -25 -17.5 -44t-41.5 -19q-12 0 -36 17t-70 35.5t-110 20.5v-571q63 2 108.5 20.5t69 37t38.5 18.5q25 0 44 -19.5t19 -44.5q0 -49 -85 -89t-194 -44 v-217q0 -18 -15 -32.5t-35.5 -14.5t-35 14.5t-14.5 32.5v221q-156 20 -236.5 123.5t-80.5 259.5zM195 733q0 -223 194 -262v563q-195 -41 -194 -262v-39z" />
<glyph unicode="&#xa3;" horiz-adv-x="997" d="M49 63q0 25 13.5 43.5t37.5 18.5h121l88 627h-155q-20 0 -34 15t-14 38q0 25 13.5 41t34.5 16h172l45 324q23 162 154.5 274.5t295.5 112.5h39q27 0 42.5 -18.5t15.5 -43.5q0 -23 -15.5 -42t-42.5 -19h-49q-119 0 -206 -78t-101 -186l-45 -324h305q43 0 43 -57 q0 -53 -43 -53h-322l-90 -627h518q23 0 35.5 -18.5t12.5 -43.5q0 -27 -12.5 -45t-35.5 -18h-770q-51 0 -51 63z" />
<glyph unicode="&#xa4;" horiz-adv-x="978" d="M127 657q0 14 10 25l66 66q-74 96 -74 219t74 219l-53 53q-12 10 -12.5 26.5t14 30t30.5 13.5q14 0 25 -11l51 -51q100 88 234 88q123 0 225 -82l55 56q10 10 26.5 10t30 -13.5t13.5 -29.5q0 -14 -13 -27l-55 -55q82 -98 82 -227q0 -123 -84 -228l57 -57q12 -12 13 -25 q0 -16 -13.5 -29.5t-30 -13.5t-24.5 11l-57 55q-102 -86 -225 -86q-129 0 -234 92l-63 -61q-10 -10 -25 -11q-16 0 -29.5 13.5t-13.5 29.5zM229 967q0 -106 78 -189.5t184.5 -83.5t186.5 83t80 190q0 104 -79 186t-187.5 82t-185.5 -82t-77 -186z" />
<glyph unicode="&#xa5;" horiz-adv-x="1034" d="M49 1442q0 23 24.5 41t51.5 18q31 0 49 -35l338 -659l352 659q18 35 47 35q27 0 50.5 -18.5t23.5 -40.5q0 -8 -4 -21l-373 -678h213q20 0 35.5 -16t15.5 -38.5t-15 -38t-36 -15.5h-243v-150h243q20 0 35.5 -16t15.5 -39q0 -25 -15 -39t-36 -14h-243v-326q0 -23 -19.5 -37 t-46.5 -14q-29 0 -48.5 14.5t-19.5 36.5v326h-233q-23 0 -36 14.5t-13 36.5q0 25 14 41t35 16h233v150h-233q-20 0 -34.5 15.5t-14.5 38t14 38.5t35 16h201l-357 678q-6 9 -6 21z" />
<glyph unicode="&#xa6;" horiz-adv-x="415" d="M141 8v557q0 20 19.5 34.5t46 14.5t47 -14t20.5 -35v-557q0 -20 -20.5 -35.5t-47 -15.5t-46 15.5t-19.5 35.5zM141 967v557q0 20 19.5 34.5t46 14.5t47 -14.5t20.5 -34.5v-557q0 -20 -20.5 -36t-47 -16t-46 16t-19.5 36z" />
<glyph unicode="&#xa7;" horiz-adv-x="956" d="M100 203q0 61 61.5 61t61.5 -49q0 -84 54.5 -157.5t185.5 -73.5q121 0 186.5 64.5t65.5 180.5q0 80 -44 132.5t-110 76.5l-139 54q-78 31 -142.5 64.5t-108.5 109t-44 186.5v254q0 113 33 193.5t89 121.5t113.5 58.5t120.5 17.5q158 0 244 -92t86 -238q0 -63 -59 -63 q-61 0 -62 63q0 78 -46 144.5t-159 66.5q-96 0 -163.5 -62.5t-67.5 -193.5q0 -68 33 -114.5t85 -73.5t115.5 -48.5t127 -49t115.5 -64.5t85 -105.5t33 -164.5v-250q0 -199 -106.5 -294t-268.5 -95q-170 0 -272.5 99.5t-102.5 240.5zM248 838q0 -100 57 -162t131 -83.5 t163 -58t132 -83.5v59q0 98 -57.5 159.5t-130 83t-161.5 58.5t-134 84v-57z" />
<glyph unicode="&#xa8;" horiz-adv-x="401" d="M0 1290q0 33 21.5 53.5t54.5 20.5q31 0 52.5 -20.5t21.5 -53.5q0 -31 -22 -53.5t-52 -22.5q-33 0 -54.5 22.5t-21.5 53.5zM252 1290q0 33 21.5 53.5t54 20.5t53 -20.5t20.5 -53.5q0 -31 -21.5 -53.5t-51.5 -22.5q-33 0 -54.5 22.5t-21.5 53.5z" />
<glyph unicode="&#xa9;" horiz-adv-x="1470" d="M106 733q0 164 58.5 296t153 211t204 121t220 42t219 -42t199.5 -121t147.5 -209t56.5 -290q0 -164 -58.5 -296t-152.5 -210.5t-203.5 -120.5t-220.5 -42t-219.5 42t-199.5 120.5t-147.5 208.5t-56.5 290zM197 733q0 -252 146 -411.5t386 -159.5t392.5 161.5t152.5 417.5 q0 252 -146.5 412t-386 160t-392 -162t-152.5 -418zM522 590v323q0 125 59.5 184.5t155.5 59.5q98 0 157.5 -55t59.5 -139q0 -33 -10 -44.5t-37 -11.5q-49 0 -49 35q-6 127 -117 127q-121 0 -120 -156v-323q0 -156 120 -156q37 0 60.5 11.5t35 36t14.5 40t7 43.5q2 35 47 35 q27 0 38 -11t11 -42q0 -88 -60 -144.5t-159 -56.5q-94 0 -153.5 59.5t-59.5 184.5z" />
<glyph unicode="&#xaa;" horiz-adv-x="643" d="M70 1055q0 100 77.5 141t225.5 41h63v27q0 66 -35.5 113.5t-107.5 47.5q-53 0 -96 -19.5t-45 -19.5q-18 0 -29.5 17.5t-11.5 38.5q0 29 59 51.5t125 22.5q127 0 187.5 -72t60.5 -180v-332q0 -39 -54 -39q-20 0 -34.5 11t-14.5 28v51q-84 -98 -198 -98q-76 0 -124 43 t-48 127zM176 1065q0 -96 100 -96q57 0 108.5 43t51.5 90v67h-57q-94 0 -148.5 -21.5t-54.5 -82.5z" />
<glyph unicode="&#xab;" horiz-adv-x="833" d="M72 567.5q0 20.5 20 57.5l182 336q12 25 48 24q29 0 52 -21.5t23 -43.5q0 -10 -6 -23l-178 -330l178 -327q6 -12 6 -23q0 -25 -23.5 -45t-54 -20t-45.5 24l-182 336q-20 35 -20 55.5zM424 567q0 18 20 58l183 336q12 25 47 24q29 0 52.5 -21.5t23.5 -43.5q0 -10 -7 -23 l-178 -330l178 -327q6 -12 7 -23q0 -25 -24 -45t-54.5 -20t-44.5 24l-183 336q-20 35 -20 55z" />
<glyph unicode="&#xac;" horiz-adv-x="993" d="M104 492q0 27 14.5 44t37.5 17h651q18 0 34.5 -18.5t16.5 -42.5v-312q0 -23 -19.5 -37t-45.5 -14q-29 0 -48.5 14.5t-19.5 36.5v254h-569q-52 1 -52 58z" />
<glyph unicode="&#xad;" horiz-adv-x="968" d="M106 492q0 27 14.5 44t37.5 17h655q20 0 35.5 -17.5t15.5 -43.5q0 -25 -15 -41.5t-36 -16.5h-655q-52 1 -52 58z" />
<glyph unicode="&#xae;" horiz-adv-x="1470" d="M106 733q0 164 58.5 296t153 211t204 121t220 42t219 -42t199.5 -121t147.5 -209t56.5 -290q0 -164 -58.5 -296t-152.5 -210.5t-203.5 -120.5t-220.5 -42t-219.5 42t-199.5 120.5t-147.5 208.5t-56.5 290zM197 733q0 -252 146 -411.5t386 -159.5t392.5 161.5t152.5 417.5 q0 252 -146.5 412t-386 160t-392 -162t-152.5 -418zM541 387v725q0 31 32 35h183q96 0 156.5 -51.5t60.5 -167.5q0 -178 -139 -213l135 -299q4 -12 4 -15q0 -20 -17.5 -35.5t-36 -15.5t-38.5 39l-144 313h-102v-315q0 -35 -45 -35q-49 0 -49 35zM635 782h121q123 0 123 138 q0 141 -123 141h-121v-279z" />
<glyph unicode="&#xaf;" horiz-adv-x="542" d="M0 1351.5q0 22.5 14.5 38t36.5 15.5h441q18 0 34.5 -15.5t16.5 -37.5q0 -20 -16.5 -36t-34.5 -16h-441q-23 0 -37 14.5t-14 37z" />
<glyph unicode="&#xb0;" horiz-adv-x="858" d="M66 1204.5q0 147.5 107.5 258t254.5 110.5t256 -108.5t109 -260.5q0 -147 -110 -260t-255 -113t-253.5 113t-108.5 260.5zM166 1204q0 -106 78 -189t184.5 -83t186 83t79.5 189q0 104 -78.5 186.5t-187.5 82.5t-185.5 -82.5t-76.5 -186.5z" />
<glyph unicode="&#xb1;" horiz-adv-x="964" d="M104 174q0 27 14.5 44.5t35.5 17.5h655q20 0 36.5 -18.5t16.5 -43t-16.5 -41t-36.5 -16.5h-655q-50 0 -50 57zM104 723q0 25 14.5 42t35.5 17h270v262q0 20 17.5 37t42 17t42 -16.5t17.5 -37.5v-262h266q20 0 36.5 -17t16.5 -42t-16.5 -42t-36.5 -17h-266v-265 q0 -23 -16.5 -36t-43.5 -13q-25 0 -42 14.5t-17 34.5v265h-270q-23 0 -36.5 16t-13.5 43z" />
<glyph unicode="&#xb2;" horiz-adv-x="628" d="M68 762v100q0 57 60 114.5t133 98.5t133.5 97.5t60.5 111.5q0 47 -36 83t-106 36q-57 0 -92 -27.5t-35 -83.5q0 -14 -15 -25.5t-38 -11.5q-49 0 -49 56q0 82 66.5 134t164.5 52q102 0 172 -59.5t70 -149.5q0 -61 -40 -116.5t-96 -94.5t-111.5 -72.5t-95.5 -68.5t-40 -70 v-49h354q14 0 25.5 -13t11.5 -31.5t-11 -33t-26 -14.5h-413q-16 0 -31.5 10.5t-15.5 26.5z" />
<glyph unicode="&#xb3;" horiz-adv-x="641" d="M59 903q0 25 11.5 34t38.5 9q53 0 53 -37q0 -39 37 -68.5t112 -29.5q154 0 154 137v19q0 121 -154 120q-37 0 -37 41q0 43 37 43q66 0 98.5 26t32.5 93q0 117 -127 117q-133 0 -133 -92q0 -43 -49 -43q-33 0 -43 9t-10 40q0 66 55 121t182 55q225 0 226 -186 q0 -137 -94 -178q119 -41 118 -166v-19q0 -117 -70.5 -173t-185.5 -56q-121 0 -186.5 56t-65.5 128z" />
<glyph unicode="&#xb4;" horiz-adv-x="317" d="M0 1268q0 27 23 37l229 125q6 6 16 6q23 0 36 -17.5t13 -40.5q0 -33 -24 -45l-219 -116q-8 -6 -21 -7q-20 0 -36.5 17.5t-16.5 40.5z" />
<glyph unicode="&#xb5;" horiz-adv-x="1005" d="M145 -424v1342q0 18 19.5 34.5t46.5 16.5t47.5 -16.5t20.5 -34.5v-584q0 -72 81.5 -148.5t176.5 -76.5q96 0 169.5 80.5t73.5 181.5v547q0 23 20.5 37t47.5 14q29 0 47 -14.5t18 -36.5v-547q0 -160 -109.5 -272.5t-268.5 -112.5q-86 0 -157 37.5t-110 93.5v-541 q0 -20 -17.5 -35.5t-39.5 -15.5q-29 0 -47.5 14t-18.5 37z" />
<glyph unicode="&#xb6;" horiz-adv-x="1073" d="M66 1051v24q0 219 109.5 320.5t291.5 101.5h399q51 0 52 -51v-1395q0 -51 -52 -51q-53 0 -53 51v1358h-158v-1356q0 -25 -16 -39t-36.5 -14t-36 14.5t-15.5 38.5v574h-84q-182 0 -291.5 102.5t-109.5 321.5z" />
<glyph unicode="&#xb7;" horiz-adv-x="376" d="M92 614q0 39 27.5 66t68.5 27t69 -27t28 -66q0 -37 -29 -64.5t-68 -27.5q-41 0 -68.5 27.5t-27.5 64.5z" />
<glyph unicode="&#xb8;" horiz-adv-x="342" d="M0 -377q0 12 9 30.5t24 18.5q2 0 37.5 -14t76.5 -14q109 0 109 80q0 76 -129 86l-78 6l53 202h82l-39 -143q98 -2 147.5 -44t49.5 -103.5t-47 -109.5t-135 -48q-51 0 -105.5 14t-54.5 39z" />
<glyph unicode="&#xb9;" horiz-adv-x="346" d="M37 1335q0 27 20 39l113 113q12 12 29 12q18 0 31.5 -10t13.5 -27v-700q0 -37 -49 -37q-53 0 -54 37v594l-43 -51q-10 -10 -24.5 -10.5t-25.5 12t-11 28.5z" />
<glyph unicode="&#xba;" horiz-adv-x="671" d="M80 1135v133q0 98 75.5 173t180.5 75q102 0 179 -74t77 -174v-133q0 -100 -77 -176t-179.5 -76t-179 76t-76.5 176zM186 1135q0 -61 44 -108.5t105.5 -47.5t105.5 47t44 109v133q0 59 -44 105t-105.5 46t-105.5 -46t-44 -105v-133z" />
<glyph unicode="&#xbb;" horiz-adv-x="835" d="M84 217q0 10 6 23l178 327l-178 330q-6 12 -6 23q0 23 23.5 44t52.5 21q35 0 47 -24l182 -336q23 -45 23 -58q0 -14 -23 -55l-182 -336q-10 -25 -45 -24q-29 0 -53.5 21t-24.5 44zM436 217q0 10 6 23l179 327l-179 330q-6 12 -6 23q0 23 23.5 44t52.5 21q35 0 47 -24 l182 -336q23 -45 23 -58q0 -14 -23 -55l-182 -336q-10 -25 -45 -24q-29 0 -53.5 21t-24.5 44z" />
<glyph unicode="&#xbc;" horiz-adv-x="1236" d="M61 1335q0 27 21 39l113 113q12 12 28 12q18 0 31.5 -10t13.5 -27v-700q0 -37 -49 -37q-53 0 -53 37v594l-43 -51q-10 -10 -24.5 -10.5t-26 12t-11.5 28.5zM143 -4q0 12 7 24l780 1530q10 25 41 25q20 0 38.5 -16.5t18.5 -38.5q0 -14 -6 -27l-776 -1518q-16 -31 -49 -30 q-20 0 -37 15.5t-17 35.5zM657 215q0 8 7 21l286 505q18 31 47 31q16 0 34 -12t18 -29q0 -8 -5 -16l-253 -443h196v158q0 33 51.5 33t51.5 -33v-158h61q16 0 26.5 -15t10.5 -33.5t-11.5 -33t-25.5 -14.5h-61v-141q0 -35 -51.5 -35t-51.5 35v141h-293q-37 0 -37 39z" />
<glyph unicode="&#xbd;" horiz-adv-x="1267" d="M63 1335q0 27 21 39l113 113q12 12 28 12q18 0 31.5 -10t13.5 -27v-700q0 -37 -49 -37q-53 0 -53 37v594l-43 -51q-10 -10 -24.5 -10.5t-26 12t-11.5 28.5zM113 -4q0 12 6 24l780 1530q10 25 41 25q20 0 38.5 -16.5t18.5 -38.5q0 -14 -6 -27l-776 -1518q-14 -31 -49 -30 q-20 0 -36.5 15.5t-16.5 35.5zM705 35v102q0 57 60 114.5t133 98.5t133.5 97.5t60.5 111.5q0 47 -37 82t-105 35q-127 0 -127 -109q0 -14 -15 -26.5t-38 -12.5q-49 0 -49 58q0 82 66.5 134t164.5 52q102 0 172 -59.5t70 -149.5q0 -63 -40 -117.5t-95 -93.5t-111.5 -72.5 t-96.5 -69.5t-40 -69v-49h354q14 0 25.5 -13t11.5 -31.5t-11 -33t-26 -14.5h-413q-16 0 -31.5 10.5t-15.5 24.5z" />
<glyph unicode="&#xbe;" horiz-adv-x="1503" d="M66 903q0 25 11 34t38 9q53 0 53 -37q0 -39 37 -68.5t112 -29.5q154 0 154 137v19q0 121 -154 120q-37 0 -36 41q0 43 36 43q66 0 99 26t33 93q0 117 -127 117q-133 0 -134 -92q0 -43 -49 -43q-33 0 -43 9t-10 40q0 66 55.5 121t182.5 55q225 0 225 -186q0 -137 -94 -178 q119 -41 118 -166v-19q0 -117 -70.5 -173t-185.5 -56q-121 0 -186 56t-65 128zM399 -4q0 12 7 24l780 1530q10 25 41 25q20 0 38.5 -16.5t18.5 -38.5q0 -14 -6 -27l-776 -1518q-14 -31 -49 -30q-20 0 -37 15.5t-17 35.5zM926 215q0 8 6 21l287 505q18 31 47 31 q16 0 33.5 -12t17.5 -29q0 -8 -4 -16l-254 -443h196v158q0 33 51.5 33t51.5 -33v-158h61q16 0 26.5 -15t10.5 -33.5t-11 -33t-26 -14.5h-61v-141q0 -35 -51.5 -35t-51.5 35v141h-292q-37 0 -37 39z" />
<glyph unicode="&#xbf;" horiz-adv-x="813" d="M66 352q0 88 33.5 169t71.5 124t95.5 97.5t71.5 72.5q47 51 59.5 114.5t12.5 196.5q0 47 55 47.5t55 -59.5q0 -158 -22.5 -232.5t-65.5 -123.5q-18 -18 -73.5 -69.5t-86 -86.5t-60.5 -100.5t-30 -139.5q0 -123 72 -192.5t205 -69.5q80 0 132 26t78.5 50.5t45 24.5 t35 -15.5t16.5 -40.5q0 -53 -93 -105t-220 -52q-184 0 -285.5 102t-101.5 262zM371 1430q0 37 27.5 65.5t66.5 28.5t66.5 -29t27.5 -65q0 -39 -27.5 -68t-66.5 -29t-66.5 29t-27.5 68z" />
<glyph unicode="&#xc0;" horiz-adv-x="1105" d="M43 57q0 10 2 15l428 1390q14 47 79.5 47t82.5 -47l426 -1390q0 -2 1 -6.5t1 -6.5q0 -25 -26.5 -42t-55.5 -17q-39 0 -51 35l-94 315h-568l-94 -315q-8 -35 -53 -35q-29 0 -53.5 16t-24.5 41zM303 467h498l-248 825zM385 1898q0 20 14.5 39t34.5 19q8 0 19 -6l227 -125 q23 -10 22 -37q0 -23 -16 -40t-37 -17q-10 0 -20 6l-217 116q-27 12 -27 45z" />
<glyph unicode="&#xc1;" horiz-adv-x="1105" d="M43 57q0 10 2 15l428 1390q14 47 79.5 47t82.5 -47l426 -1390q0 -2 1 -6.5t1 -6.5q0 -25 -26.5 -42t-55.5 -17q-39 0 -51 35l-94 315h-568l-94 -315q-8 -35 -53 -35q-29 0 -53.5 16t-24.5 41zM303 467h498l-248 825zM414 1788q0 27 22 37l230 125q6 6 16 6q23 0 36 -17.5 t13 -40.5q0 -33 -24 -45l-220 -116q-8 -6 -20 -6q-20 0 -36.5 17t-16.5 40z" />
<glyph unicode="&#xc2;" horiz-adv-x="1105" d="M43 57q0 10 2 15l428 1390q14 47 79.5 47t82.5 -47l426 -1390q0 -2 1 -6.5t1 -6.5q0 -25 -26.5 -42t-55.5 -17q-39 0 -51 35l-94 315h-568l-94 -315q-8 -35 -53 -35q-29 0 -53.5 16t-24.5 41zM276 1786q0 31 27 45l213 115q16 10 34.5 10t35.5 -10l213 -115 q27 -12 26 -47q0 -20 -12 -34.5t-29 -14.5q-2 0 -20 6l-213 112l-213 -114l-19 -6q-16 0 -29.5 16.5t-13.5 36.5zM303 467h498l-248 825z" />
<glyph unicode="&#xc3;" horiz-adv-x="1105" d="M43 57q0 10 2 15l428 1390q14 47 79.5 47t82.5 -47l426 -1390q0 -2 1 -6.5t1 -6.5q0 -25 -26.5 -42t-55.5 -17q-39 0 -51 35l-94 315h-568l-94 -315q-8 -35 -53 -35q-29 0 -53.5 16t-24.5 41zM236 1825q0 51 60 84t120 33q53 0 135 -35t135 -35t92 29.5t51 29.5 q18 0 29.5 -15t11.5 -32q0 -57 -57 -87t-115 -30q-55 0 -136 36t-136 36q-51 0 -96 -32.5t-56 -32.5q-38 0 -38 51zM303 467h498l-248 825z" />
<glyph unicode="&#xc4;" horiz-adv-x="1105" d="M43 57q0 10 2 15l428 1390q14 47 79.5 47t82.5 -47l426 -1390q0 -2 1 -6.5t1 -6.5q0 -25 -26.5 -42t-55.5 -17q-39 0 -51 35l-94 315h-568l-94 -315q-8 -35 -53 -35q-29 0 -53.5 16t-24.5 41zM303 467h498l-248 825zM352 1810q0 33 21.5 53.5t54.5 20.5q31 0 52.5 -20.5 t21.5 -53.5q0 -31 -21.5 -53t-52.5 -22q-33 0 -54.5 22t-21.5 53zM604 1810q0 33 21.5 53.5t54.5 20.5t53.5 -20.5t20.5 -53.5q0 -31 -21.5 -53t-52.5 -22q-33 0 -54.5 22t-21.5 53z" />
<glyph unicode="&#xc5;" horiz-adv-x="1105" d="M43 57q0 10 2 15l428 1390q14 47 79.5 47t82.5 -47l426 -1390q0 -2 1 -6.5t1 -6.5q0 -25 -26.5 -42t-55.5 -17q-39 0 -51 35l-94 315h-568l-94 -315q-8 -35 -53 -35q-29 0 -53.5 16t-24.5 41zM303 467h498l-248 825zM362 1903q0 76 55.5 133t133.5 57q76 0 133 -57.5 t57 -132.5q0 -78 -57 -137.5t-133 -59.5t-132.5 59.5t-56.5 137.5zM430 1903q0 -49 37 -89t86 -40q47 0 83 39.5t36 89.5q0 45 -36 81.5t-83 36.5q-51 0 -87 -36.5t-36 -81.5z" />
<glyph unicode="&#xc6;" horiz-adv-x="1464" d="M150 63v998q0 225 115.5 330.5t305.5 105.5h795q49 0 49 -59q0 -27 -13 -46.5t-36 -19.5h-481v-563h301q25 0 38 -17.5t13 -43.5q0 -55 -51 -56h-301v-567h481q23 0 36 -18.5t13 -45.5q0 -61 -49 -61h-553q-25 0 -44 14.5t-19 38.5v639h-469v-629q0 -33 -13.5 -48 t-54.5 -15q-63 0 -63 63zM281 809h469v563h-179q-291 0 -290 -311v-252z" />
<glyph unicode="&#xc7;" horiz-adv-x="1071" d="M139 426v635q0 223 120 329.5t310 106.5q195 0 308.5 -99.5t113.5 -242.5q0 -49 -15 -65.5t-52 -16.5q-63 0 -68 51q-2 31 -8 59.5t-24.5 64.5t-48.5 62.5t-83 44t-123 17.5q-295 0 -295 -311v-635q0 -313 304 -313q86 0 143 23.5t83.5 68.5t36 76.5t15.5 83.5 q6 53 68 53q37 0 52 -17.5t15 -66.5q0 -131 -95 -226.5t-259 -113.5l-31 -119q98 -2 147.5 -44t49.5 -103.5t-47 -109.5t-135 -48q-51 0 -105.5 14.5t-54.5 38.5q0 12 9 30.5t24 18.5q2 0 37.5 -14t76.5 -14q109 0 109 80q0 76 -129 86l-78 6l45 172q-186 4 -301 109.5 t-115 328.5z" />
<glyph unicode="&#xc8;" horiz-adv-x="1040" d="M156 53v1393q0 25 18.5 38t42.5 13h729q51 0 51 -59q0 -27 -13 -46.5t-38 -19.5h-655v-563h321q25 0 38.5 -17.5t13.5 -43.5q0 -55 -52 -56h-321v-567h655q23 0 37 -18.5t14 -45.5q0 -61 -51 -61h-729q-25 0 -43 14t-18 39zM414 1898q0 20 14 39t35 19q8 0 18 -6 l228 -125q23 -10 22 -37q0 -23 -16.5 -40t-36.5 -17q-10 0 -21 6l-217 116q-26 12 -26 45z" />
<glyph unicode="&#xc9;" horiz-adv-x="1040" d="M156 53v1393q0 25 18.5 38t42.5 13h729q51 0 51 -59q0 -27 -13 -46.5t-38 -19.5h-655v-563h321q25 0 38.5 -17.5t13.5 -43.5q0 -55 -52 -56h-321v-567h655q23 0 37 -18.5t14 -45.5q0 -61 -51 -61h-729q-25 0 -43 14t-18 39zM430 1788q0 27 23 37l229 125q6 6 16 6 q23 0 36.5 -17.5t13.5 -40.5q0 -33 -25 -45l-219 -116q-8 -6 -21 -6q-20 0 -36.5 17t-16.5 40z" />
<glyph unicode="&#xca;" horiz-adv-x="1040" d="M156 53v1393q0 25 18.5 38t42.5 13h729q51 0 51 -59q0 -27 -13 -46.5t-38 -19.5h-655v-563h321q25 0 38.5 -17.5t13.5 -43.5q0 -55 -52 -56h-321v-567h655q23 0 37 -18.5t14 -45.5q0 -61 -51 -61h-729q-25 0 -43 14t-18 39zM305 1786q0 31 27 45l213 115q16 10 34.5 10 t34.5 -10l213 -115q27 -12 27 -47q0 -20 -12.5 -34.5t-28.5 -14.5q-2 0 -20 6l-213 112l-213 -114l-19 -6q-16 0 -29.5 16.5t-13.5 36.5z" />
<glyph unicode="&#xcb;" horiz-adv-x="1040" d="M156 53v1393q0 25 18.5 38t42.5 13h729q51 0 51 -59q0 -27 -13 -46.5t-38 -19.5h-655v-563h321q25 0 38.5 -17.5t13.5 -43.5q0 -55 -52 -56h-321v-567h655q23 0 37 -18.5t14 -45.5q0 -61 -51 -61h-729q-25 0 -43 14t-18 39zM377 1810q0 33 21.5 53.5t54.5 20.5 q31 0 52 -20.5t21 -53.5q0 -31 -21.5 -53t-51.5 -22q-33 0 -54.5 22t-21.5 53zM629 1810q0 33 21.5 53.5t54 20.5t53 -20.5t20.5 -53.5q0 -31 -21.5 -53t-51.5 -22q-33 0 -54.5 22t-21.5 53z" />
<glyph unicode="&#xcc;" horiz-adv-x="446" d="M59 1898q0 20 14.5 39t35.5 19q10 0 18 -6l227 -125q23 -10 23 -37q0 -23 -16.5 -40t-36.5 -17q-12 0 -21 6l-217 116q-27 12 -27 45zM156 53v1395q0 49 67.5 49t67.5 -49v-1395q0 -25 -20.5 -39t-47.5 -14q-29 0 -48 14t-19 39z" />
<glyph unicode="&#xcd;" horiz-adv-x="446" d="M68 1788q0 27 22 37l229 125q6 6 17 6q23 0 36 -17.5t13 -40.5q0 -33 -25 -45l-219 -116q-10 -6 -20 -6q-20 0 -36.5 17t-16.5 40zM156 53v1395q0 49 67.5 49t67.5 -49v-1395q0 -25 -20.5 -39t-47.5 -14q-29 0 -48 14t-19 39z" />
<glyph unicode="&#xce;" horiz-adv-x="446" d="M-51 1786q0 31 26 45l213 115q16 10 35 10t35 -10l213 -115q27 -12 27 -47q0 -20 -12.5 -34.5t-28.5 -14.5q-2 0 -21 6l-213 112l-213 -114l-18 -6q-16 0 -29.5 16.5t-13.5 36.5zM156 53v1395q0 49 67.5 49t67.5 -49v-1395q0 -25 -20.5 -39t-47.5 -14q-29 0 -48 14 t-19 39z" />
<glyph unicode="&#xcf;" horiz-adv-x="446" d="M23 1810q0 33 21.5 53.5t53.5 20.5q31 0 52.5 -20.5t21.5 -53.5q0 -31 -21.5 -53t-52.5 -22q-33 0 -54 22t-21 53zM156 53v1395q0 49 67.5 49t67.5 -49v-1395q0 -25 -20.5 -39t-47.5 -14q-29 0 -48 14t-19 39zM274 1810q0 33 21.5 53.5t54.5 20.5t53.5 -20.5t20.5 -53.5 q0 -31 -21.5 -53t-52.5 -22q-33 0 -54.5 22t-21.5 53z" />
<glyph unicode="&#xd0;" horiz-adv-x="1165" d="M-2 786q0 23 13.5 39.5t33.5 16.5h129v606q0 20 17.5 34.5t44.5 14.5h362q195 0 311.5 -105.5t116.5 -330.5v-623q0 -227 -116.5 -332.5t-311.5 -105.5h-362q-27 0 -44.5 15.5t-17.5 35.5v680h-129q-20 0 -33.5 15t-13.5 40zM309 125h289q139 0 216 79t77 234v623 q0 156 -77 233.5t-216 77.5h-289v-530h232q20 0 33.5 -16.5t13.5 -39t-13.5 -39t-33.5 -16.5h-232v-606z" />
<glyph unicode="&#xd1;" horiz-adv-x="1173" d="M156 53v1393q0 51 67 51q57 0 107 -94l553 -1090v1135q0 49 67.5 49t67.5 -49v-1395q0 -25 -20.5 -39t-47.5 -14q-51 0 -90 78l-569 1108v-1133q0 -25 -20.5 -39t-47.5 -14q-29 0 -48 14t-19 39zM264 1825q0 51 60.5 84t119.5 33q53 0 135.5 -35t135.5 -35t92 29.5 t51 29.5q18 0 29.5 -15t11.5 -32q0 -57 -57.5 -87t-114.5 -30q-55 0 -136 36t-136 36q-51 0 -96.5 -32.5t-55.5 -32.5q-39 0 -39 51z" />
<glyph unicode="&#xd2;" d="M139 426v635q0 225 116 330.5t310.5 105.5t310 -105.5t115.5 -330.5v-635q0 -227 -115.5 -332.5t-310 -105.5t-310.5 105.5t-116 332.5zM274 426q0 -313 291 -313t291 313v635q0 311 -291 311t-291 -311v-635zM399 1898q0 20 14.5 39t35.5 19q10 0 18 -6l227 -125 q23 -10 23 -37q0 -23 -16.5 -40t-36.5 -17q-12 0 -21 6l-217 116q-27 12 -27 45z" />
<glyph unicode="&#xd3;" d="M139 426v635q0 225 116 330.5t310.5 105.5t310 -105.5t115.5 -330.5v-635q0 -227 -115.5 -332.5t-310 -105.5t-310.5 105.5t-116 332.5zM274 426q0 -313 291 -313t291 313v635q0 311 -291 311t-291 -311v-635zM430 1788q0 27 23 37l229 125q6 6 16 6q23 0 36.5 -17.5 t13.5 -40.5q0 -33 -25 -45l-219 -116q-8 -6 -21 -6q-20 0 -36.5 17t-16.5 40z" />
<glyph unicode="&#xd4;" d="M139 426v635q0 225 116 330.5t310.5 105.5t310 -105.5t115.5 -330.5v-635q0 -227 -115.5 -332.5t-310 -105.5t-310.5 105.5t-116 332.5zM274 426q0 -313 291 -313t291 313v635q0 311 -291 311t-291 -311v-635zM291 1786q0 31 26 45l213 115q16 10 35 10t35 -10l213 -115 q27 -12 27 -47q0 -20 -12.5 -34.5t-28.5 -14.5q-2 0 -21 6l-213 112l-213 -114l-18 -6q-16 0 -29.5 16.5t-13.5 36.5z" />
<glyph unicode="&#xd5;" d="M139 426v635q0 225 116 330.5t310.5 105.5t310 -105.5t115.5 -330.5v-635q0 -227 -115.5 -332.5t-310 -105.5t-310.5 105.5t-116 332.5zM248 1825q0 51 60.5 84t119.5 33q53 0 135 -35t135.5 -35t92 29.5t51.5 29.5q18 0 29.5 -15t11.5 -32q0 -57 -57.5 -87t-114.5 -30 q-55 0 -136 36t-137 36q-51 0 -96 -32.5t-55 -32.5q-39 0 -39 51zM274 426q0 -313 291 -313t291 313v635q0 311 -291 311t-291 -311v-635z" />
<glyph unicode="&#xd6;" d="M139 426v635q0 225 116 330.5t310.5 105.5t310 -105.5t115.5 -330.5v-635q0 -227 -115.5 -332.5t-310 -105.5t-310.5 105.5t-116 332.5zM274 426q0 -313 291 -313t291 313v635q0 311 -291 311t-291 -311v-635zM365 1810q0 33 21.5 53.5t53.5 20.5q31 0 52.5 -20.5 t21.5 -53.5q0 -31 -21.5 -53t-52.5 -22q-33 0 -54 22t-21 53zM616 1810q0 33 21.5 53.5t54.5 20.5t53.5 -20.5t20.5 -53.5q0 -31 -21.5 -53t-52.5 -22q-33 0 -54.5 22t-21.5 53z" />
<glyph unicode="&#xd7;" horiz-adv-x="815" d="M119 340q0 18 14 33l197 190l-197 191q-12 12 -12 34.5t19.5 42t41.5 19.5q23 0 37 -12l187 -191l190 191q12 12 35 12q25 0 44 -19.5t19 -42.5q0 -20 -14 -34l-195 -191l197 -190q12 -12 12 -33q0 -25 -19.5 -44.5t-43.5 -19.5q-18 0 -33 15l-192 190l-189 -190 q-14 -14 -35 -15q-23 0 -43 20.5t-20 43.5z" />
<glyph unicode="&#xd8;" d="M123 -4q0 12 6 24l72 142q-61 98 -62 264v635q0 225 116 330.5t310 105.5q170 0 277 -80l67 133q10 25 41 25q20 0 40 -16.5t20 -38.5q0 -16 -9 -27l-79 -158q70 -109 69 -274v-635q0 -227 -115.5 -332.5t-310.5 -105.5q-180 0 -289 88l-51 -101q-12 -31 -49 -30 q-20 0 -36.5 15.5t-16.5 35.5zM274 426q0 -61 9 -102l495 972q-74 76 -213 76q-291 0 -291 -311v-635zM340 201q74 -88 225 -88q291 0 291 313v635q0 57 -14 119z" />
<glyph unicode="&#xd9;" horiz-adv-x="1159" d="M150 426v1022q0 49 67.5 49t67.5 -49v-1022q0 -156 76.5 -234.5t218 -78.5t218 78.5t76.5 234.5v1022q0 49 68 49t68 -49v-1022q0 -227 -118 -332.5t-312.5 -105.5t-312 105.5t-117.5 332.5zM410 1898q0 20 14 39t35 19q8 0 18 -6l228 -125q23 -10 22 -37 q0 -23 -16.5 -40t-36.5 -17q-10 0 -21 6l-217 116q-26 12 -26 45z" />
<glyph unicode="&#xda;" horiz-adv-x="1159" d="M150 426v1022q0 49 67.5 49t67.5 -49v-1022q0 -156 76.5 -234.5t218 -78.5t218 78.5t76.5 234.5v1022q0 49 68 49t68 -49v-1022q0 -227 -118 -332.5t-312.5 -105.5t-312 105.5t-117.5 332.5zM434 1788q0 27 23 37l229 125q6 6 16 6q23 0 36.5 -17.5t13.5 -40.5 q0 -33 -25 -45l-219 -116q-8 -6 -21 -6q-20 0 -36.5 17t-16.5 40z" />
<glyph unicode="&#xdb;" horiz-adv-x="1159" d="M150 426v1022q0 49 67.5 49t67.5 -49v-1022q0 -156 76.5 -234.5t218 -78.5t218 78.5t76.5 234.5v1022q0 49 68 49t68 -49v-1022q0 -227 -118 -332.5t-312.5 -105.5t-312 105.5t-117.5 332.5zM301 1786q0 31 27 45l213 115q16 10 34.5 10t34.5 -10l213 -115q27 -12 27 -47 q0 -20 -12.5 -34.5t-28.5 -14.5q-2 0 -21 6l-213 112l-213 -114l-18 -6q-16 0 -29.5 16.5t-13.5 36.5z" />
<glyph unicode="&#xdc;" horiz-adv-x="1159" d="M150 426v1022q0 49 67.5 49t67.5 -49v-1022q0 -156 76.5 -234.5t218 -78.5t218 78.5t76.5 234.5v1022q0 49 68 49t68 -49v-1022q0 -227 -118 -332.5t-312.5 -105.5t-312 105.5t-117.5 332.5zM379 1810q0 33 21.5 53.5t54.5 20.5q31 0 52 -20.5t21 -53.5q0 -31 -21.5 -53 t-51.5 -22q-33 0 -54.5 22t-21.5 53zM631 1810q0 33 21.5 53.5t54 20.5t53 -20.5t20.5 -53.5q0 -31 -21.5 -53t-51.5 -22q-33 0 -54.5 22t-21.5 53z" />
<glyph unicode="&#xdd;" horiz-adv-x="1087" d="M39 1440q0 25 23.5 41t50.5 16q33 0 53 -41l377 -747l379 747q20 41 53 41q27 0 50.5 -16.5t23.5 -40.5q0 -18 -9 -37l-426 -813q-4 -12 -4 -17v-520q0 -25 -19.5 -39t-47.5 -14q-27 0 -47.5 14.5t-20.5 38.5v520q0 10 -2 17l-424 813q-10 19 -10 37zM395 1788 q0 27 23 37l229 125q6 6 17 6q23 0 36 -17.5t13 -40.5q0 -33 -25 -45l-219 -116q-10 -6 -20 -6q-20 0 -37 17t-17 40z" />
<glyph unicode="&#xde;" horiz-adv-x="1013" d="M156 53v1405q0 47 63 47q31 0 50.5 -13t19.5 -36v-344q84 156 282 156q145 0 250 -90.5t105 -239.5v-330q0 -147 -104.5 -241.5t-239.5 -94.5q-96 0 -181.5 47.5t-111.5 114.5v-381q0 -20 -20.5 -36.5t-47 -16.5t-46 16.5t-19.5 36.5zM289 600q0 -74 75.5 -139.5 t184.5 -65.5q98 0 171 57.5t73 155.5v330q0 96 -72 151.5t-172 55.5q-106 0 -183 -58.5t-77 -148.5v-338z" />
<glyph unicode="&#xdf;" horiz-adv-x="1128" d="M12 913q0 23 13.5 39.5t33.5 16.5h150v225q0 166 83 272.5t257 106.5q156 0 252 -93.5t96 -277.5q0 -115 -39 -214t-106 -132q111 -20 204 -139t93 -271v-34q0 -217 -109 -335t-264 -118q-217 0 -217 90q0 23 11 43.5t30 20.5q4 0 55 -19.5t104 -19.5q123 0 193 85 t70 244v35q0 133 -78 230.5t-236 113.5q-25 2 -37 6.5t-22 16.5t-10 33q0 33 17 43t54 16q170 14 170 270q0 133 -56 208t-169 75t-163 -72.5t-50 -183.5v-1143q0 -23 -20.5 -37t-49 -14t-46 14.5t-17.5 36.5v807h-150q-20 0 -33.5 15t-13.5 40z" />
<glyph unicode="&#xe0;" horiz-adv-x="897" d="M61 256q0 158 122 219.5t356 61.5h104v49q0 113 -59.5 195.5t-182.5 82.5q-82 0 -148.5 -29.5t-70.5 -29.5q-25 0 -39 22.5t-14 49.5q0 39 88 71.5t189 32.5q193 0 281.5 -111.5t88.5 -283.5v-533q0 -23 -18.5 -38t-46.5 -15q-27 0 -44.5 15.5t-17.5 37.5v90 q-137 -158 -309 -157q-123 0 -201 68.5t-78 201.5zM195 268q0 -86 49 -128t129 -42q96 0 183 72t87 143v131h-86q-82 0 -138.5 -6t-111.5 -22.5t-83.5 -53.5t-28.5 -94zM262 1378q0 20 14.5 39t34.5 19q8 0 19 -6l227 -125q23 -10 23 -37q0 -23 -16.5 -40.5t-37.5 -17.5 q-10 0 -20 7l-217 116q-27 12 -27 45z" />
<glyph unicode="&#xe1;" horiz-adv-x="897" d="M61 256q0 158 122 219.5t356 61.5h104v49q0 113 -59.5 195.5t-182.5 82.5q-82 0 -148.5 -29.5t-70.5 -29.5q-25 0 -39 22.5t-14 49.5q0 39 88 71.5t189 32.5q193 0 281.5 -111.5t88.5 -283.5v-533q0 -23 -18.5 -38t-46.5 -15q-27 0 -44.5 15.5t-17.5 37.5v90 q-137 -158 -309 -157q-123 0 -201 68.5t-78 201.5zM195 268q0 -86 49 -128t129 -42q96 0 183 72t87 143v131h-86q-82 0 -138.5 -6t-111.5 -22.5t-83.5 -53.5t-28.5 -94zM272 1268q0 27 23 37l229 125q6 6 17 6q23 0 36 -17.5t13 -40.5q0 -33 -25 -45l-219 -116 q-10 -6 -20 -7q-20 0 -37 17.5t-17 40.5z" />
<glyph unicode="&#xe2;" horiz-adv-x="897" d="M61 256q0 158 122 219.5t356 61.5h104v49q0 113 -59.5 195.5t-182.5 82.5q-82 0 -148.5 -29.5t-70.5 -29.5q-25 0 -39 22.5t-14 49.5q0 39 88 71.5t189 32.5q193 0 281.5 -111.5t88.5 -283.5v-533q0 -23 -18.5 -38t-46.5 -15q-27 0 -44.5 15.5t-17.5 37.5v90 q-137 -158 -309 -157q-123 0 -201 68.5t-78 201.5zM147 1266q0 31 27 45l213 114q16 10 34.5 10.5t35.5 -10.5l213 -114q27 -12 26 -47q0 -20 -12 -35t-29 -15q-2 0 -20 7l-213 112l-213 -114l-19 -7q-16 0 -29.5 17t-13.5 37zM195 268q0 -86 49 -128t129 -42q96 0 183 72 t87 143v131h-86q-82 0 -138.5 -6t-111.5 -22.5t-83.5 -53.5t-28.5 -94z" />
<glyph unicode="&#xe3;" horiz-adv-x="897" d="M61 256q0 158 122 219.5t356 61.5h104v49q0 113 -59.5 195.5t-182.5 82.5q-82 0 -148.5 -29.5t-70.5 -29.5q-25 0 -39 22.5t-14 49.5q0 39 88 71.5t189 32.5q193 0 281.5 -111.5t88.5 -283.5v-533q0 -23 -18.5 -38t-46.5 -15q-27 0 -44.5 15.5t-17.5 37.5v90 q-137 -158 -309 -157q-123 0 -201 68.5t-78 201.5zM102 1304.5q0 51.5 60.5 84t120.5 32.5q53 0 135 -34.5t135 -34.5t92 29.5t51 29.5q18 0 29.5 -15.5t11.5 -31.5q0 -57 -57 -87t-115 -30q-55 0 -136 36t-136 36q-51 0 -96 -33t-56 -33q-39 0 -39 51.5zM195 268 q0 -86 49 -128t129 -42q96 0 183 72t87 143v131h-86q-82 0 -138.5 -6t-111.5 -22.5t-83.5 -53.5t-28.5 -94z" />
<glyph unicode="&#xe4;" horiz-adv-x="897" d="M61 256q0 158 122 219.5t356 61.5h104v49q0 113 -59.5 195.5t-182.5 82.5q-82 0 -148.5 -29.5t-70.5 -29.5q-25 0 -39 22.5t-14 49.5q0 39 88 71.5t189 32.5q193 0 281.5 -111.5t88.5 -283.5v-533q0 -23 -18.5 -38t-46.5 -15q-27 0 -44.5 15.5t-17.5 37.5v90 q-137 -158 -309 -157q-123 0 -201 68.5t-78 201.5zM195 268q0 -86 49 -128t129 -42q96 0 183 72t87 143v131h-86q-82 0 -138.5 -6t-111.5 -22.5t-83.5 -53.5t-28.5 -94zM219 1290q0 33 21.5 53.5t54.5 20.5q31 0 52.5 -20.5t21.5 -53.5q0 -31 -21.5 -53.5t-52.5 -22.5 q-33 0 -54.5 22.5t-21.5 53.5zM471 1290q0 33 21.5 53.5t54.5 20.5t53.5 -20.5t20.5 -53.5q0 -31 -21.5 -53.5t-52.5 -22.5q-33 0 -54.5 22.5t-21.5 53.5z" />
<glyph unicode="&#xe5;" horiz-adv-x="897" d="M61 256q0 158 122 219.5t356 61.5h104v49q0 113 -59.5 195.5t-182.5 82.5q-82 0 -148.5 -29.5t-70.5 -29.5q-25 0 -39 22.5t-14 49.5q0 39 88 71.5t189 32.5q193 0 281.5 -111.5t88.5 -283.5v-533q0 -23 -18.5 -38t-46.5 -15q-27 0 -44.5 15.5t-17.5 37.5v90 q-137 -158 -309 -157q-123 0 -201 68.5t-78 201.5zM195 268q0 -86 49 -128t129 -42q96 0 183 72t87 143v131h-86q-82 0 -138.5 -6t-111.5 -22.5t-83.5 -53.5t-28.5 -94zM233 1382q0 76 55.5 133.5t133.5 57.5q76 0 133 -57.5t57 -133.5q0 -78 -57 -137t-133 -59t-132.5 59 t-56.5 137zM301 1382q0 -49 37 -89t86 -40q47 0 83 40t36 89q0 45 -36 82t-83 37q-51 0 -87 -37t-36 -82z" />
<glyph unicode="&#xe6;" horiz-adv-x="1490" d="M61 256q0 158 121 219.5t355 61.5h104v49q0 115 -60.5 197.5t-185.5 82.5q-78 0 -145.5 -29.5t-71.5 -29.5q-23 0 -38 23.5t-15 46.5q0 39 89 72.5t189 33.5q225 0 314 -192q49 86 133 138t182 52q150 0 267.5 -101.5t117.5 -293.5q0 -88 -37 -115t-141 -27h-459v-75 q0 -121 85 -194t220 -73q68 0 120 20.5t82 41t46 20.5q20 0 39 -20.5t19 -42.5q0 -47 -104.5 -91t-221.5 -44t-215 55t-148 154q-63 -104 -157 -156.5t-195 -52.5q-123 0 -206 69.5t-83 200.5zM195 264q0 -80 49 -123t127 -43q102 0 186 73t84 142v131h-88q-82 0 -138.5 -6 t-110.5 -23.5t-81.5 -55.5t-27.5 -95zM780 543h406q63 0 82.5 13t19.5 52q0 106 -72.5 184t-183.5 78q-104 0 -178 -72.5t-74 -174.5v-80z" />
<glyph unicode="&#xe7;" horiz-adv-x="841" d="M94 375v219q0 172 100.5 279.5t294.5 107.5q123 0 206 -44t83 -89q0 -23 -18.5 -44.5t-40.5 -21.5q-12 0 -38 18.5t-73 38t-112 19.5q-131 0 -200 -69.5t-69 -194.5v-219q0 -127 69 -196.5t202 -69.5q70 0 118 19t73.5 38.5t39.5 19.5q27 0 44.5 -20.5t17.5 -44.5 q0 -41 -75 -83t-188 -50l-30 -113q98 -2 147 -44t49 -103.5t-47 -109.5t-135 -48q-51 0 -105.5 14.5t-54.5 38.5q0 12 9.5 30.5t23.5 18.5q2 0 38 -14t77 -14q109 0 108 80q0 76 -129 86l-78 6l45 172q-174 12 -263 116.5t-89 270.5z" />
<glyph unicode="&#xe8;" horiz-adv-x="937" d="M92 375v229q0 154 115 265.5t276 111.5q156 0 269.5 -106.5t113.5 -266.5q0 -57 -13 -92t-43 -49t-54.5 -18.5t-67.5 -4.5h-463v-75q0 -121 87 -194t225 -73q70 0 122 20.5t79.5 41t43.5 20.5q23 0 40.5 -21.5t17.5 -41.5q0 -43 -88 -89t-220 -46q-195 0 -317.5 107.5 t-122.5 281.5zM225 543h410q61 0 81.5 13t20.5 56q0 102 -72.5 180t-183.5 78q-106 0 -181 -73.5t-75 -175.5v-78zM315 1378q0 20 14.5 39t35.5 19q8 0 18 -6l227 -125q23 -10 23 -37q0 -23 -16.5 -40.5t-36.5 -17.5q-10 0 -21 7l-217 116q-27 12 -27 45z" />
<glyph unicode="&#xe9;" horiz-adv-x="937" d="M92 375v229q0 154 115 265.5t276 111.5q156 0 269.5 -106.5t113.5 -266.5q0 -57 -13 -92t-43 -49t-54.5 -18.5t-67.5 -4.5h-463v-75q0 -121 87 -194t225 -73q70 0 122 20.5t79.5 41t43.5 20.5q23 0 40.5 -21.5t17.5 -41.5q0 -43 -88 -89t-220 -46q-195 0 -317.5 107.5 t-122.5 281.5zM225 543h410q61 0 81.5 13t20.5 56q0 102 -72.5 180t-183.5 78q-106 0 -181 -73.5t-75 -175.5v-78zM326 1268q0 27 22 37l230 125q6 6 16 6q23 0 36 -17.5t13 -40.5q0 -33 -25 -45l-219 -116q-10 -6 -20 -7q-20 0 -36.5 17.5t-16.5 40.5z" />
<glyph unicode="&#xea;" horiz-adv-x="937" d="M92 375v229q0 154 115 265.5t276 111.5q156 0 269.5 -106.5t113.5 -266.5q0 -57 -13 -92t-43 -49t-54.5 -18.5t-67.5 -4.5h-463v-75q0 -121 87 -194t225 -73q70 0 122 20.5t79.5 41t43.5 20.5q23 0 40.5 -21.5t17.5 -41.5q0 -43 -88 -89t-220 -46q-195 0 -317.5 107.5 t-122.5 281.5zM207 1266q0 31 26 45l213 114q16 10 35 10.5t35 -10.5l213 -114q27 -12 27 -47q0 -20 -12.5 -35t-28.5 -15q-2 0 -21 7l-213 112l-213 -114l-18 -7q-16 0 -29.5 17t-13.5 37zM225 543h410q61 0 81.5 13t20.5 56q0 102 -72.5 180t-183.5 78q-106 0 -181 -73.5 t-75 -175.5v-78z" />
<glyph unicode="&#xeb;" horiz-adv-x="937" d="M92 375v229q0 154 115 265.5t276 111.5q156 0 269.5 -106.5t113.5 -266.5q0 -57 -13 -92t-43 -49t-54.5 -18.5t-67.5 -4.5h-463v-75q0 -121 87 -194t225 -73q70 0 122 20.5t79.5 41t43.5 20.5q23 0 40.5 -21.5t17.5 -41.5q0 -43 -88 -89t-220 -46q-195 0 -317.5 107.5 t-122.5 281.5zM225 543h410q61 0 81.5 13t20.5 56q0 102 -72.5 180t-183.5 78q-106 0 -181 -73.5t-75 -175.5v-78zM281 1290q0 33 21.5 53.5t53.5 20.5q31 0 52.5 -20.5t21.5 -53.5q0 -31 -21.5 -53.5t-52.5 -22.5q-33 0 -54 22.5t-21 53.5zM532 1290q0 33 21.5 53.5 t54.5 20.5t53.5 -20.5t20.5 -53.5q0 -31 -21.5 -53.5t-52.5 -22.5q-33 0 -54.5 22.5t-21.5 53.5z" />
<glyph unicode="&#xec;" horiz-adv-x="391" d="M25 1378q0 20 14 39t35 19q8 0 18 -6l227 -125q23 -10 23 -37q0 -23 -16.5 -40.5t-36.5 -17.5q-10 0 -21 7l-217 116q-26 12 -26 45zM129 53v867q0 20 18.5 34.5t47 14.5t48 -14.5t19.5 -34.5v-867q0 -20 -20.5 -36.5t-47 -16.5t-46 16.5t-19.5 36.5z" />
<glyph unicode="&#xed;" horiz-adv-x="391" d="M45 1268q0 27 23 37l229 125q6 6 16 6q23 0 36 -17.5t13 -40.5q0 -33 -24 -45l-219 -116q-8 -6 -21 -7q-20 0 -36.5 17.5t-16.5 40.5zM129 53v867q0 20 18.5 34.5t47 14.5t48 -14.5t19.5 -34.5v-867q0 -20 -20.5 -36.5t-47 -16.5t-46 16.5t-19.5 36.5z" />
<glyph unicode="&#xee;" horiz-adv-x="391" d="M-80 1266q0 31 27 45l213 114q16 10 34.5 10.5t34.5 -10.5l213 -114q27 -12 27 -47q0 -20 -12.5 -35t-28.5 -15q-2 0 -20 7l-213 112l-213 -114l-19 -7q-16 0 -29.5 17t-13.5 37zM129 53v867q0 20 18.5 34.5t47 14.5t48 -14.5t19.5 -34.5v-867q0 -20 -20.5 -36.5 t-47 -16.5t-46 16.5t-19.5 36.5z" />
<glyph unicode="&#xef;" horiz-adv-x="391" d="M-2 1290q0 33 21.5 53.5t54.5 20.5q31 0 52 -20.5t21 -53.5q0 -31 -21.5 -53.5t-51.5 -22.5q-33 0 -54.5 22.5t-21.5 53.5zM129 53v867q0 20 18.5 34.5t47 14.5t48 -14.5t19.5 -34.5v-867q0 -20 -20.5 -36.5t-47 -16.5t-46 16.5t-19.5 36.5zM250 1290q0 33 21.5 53.5 t54 20.5t53 -20.5t20.5 -53.5q0 -31 -21.5 -53.5t-51.5 -22.5q-33 0 -54.5 22.5t-21.5 53.5z" />
<glyph unicode="&#xf0;" horiz-adv-x="987" d="M90 375v223q0 154 107.5 268.5t255.5 114.5q92 0 175 -47t109 -123q-20 268 -145 442l-172 -98q-10 -6 -21 -6q-20 0 -36.5 19.5t-16.5 39.5q0 25 23 37l157 92q-98 100 -215 105q-35 16 -35 53q0 27 18.5 47.5t57.5 20.5q152 0 291 -158l150 86q6 6 18 6 q20 0 36.5 -17.5t16.5 -39.5q0 -27 -22 -37l-137 -82q166 -246 165 -584v-362q0 -154 -117.5 -271.5t-273 -117.5t-272.5 117.5t-117 271.5zM223 375q0 -104 76 -185t180 -81q106 0 182 80.5t76 185.5v229q0 100 -77.5 177t-180.5 77q-104 0 -180 -80t-76 -180v-223z" />
<glyph unicode="&#xf1;" horiz-adv-x="1015" d="M129 53v867q0 23 18.5 36t47.5 13q25 0 43 -14.5t18 -34.5v-95q35 66 106.5 111t167.5 45q147 0 256 -112.5t109 -270.5v-545q0 -25 -20.5 -39t-47.5 -14q-25 0 -45 14.5t-20 38.5v545q0 100 -76 180t-180 80q-96 0 -170 -71.5t-74 -188.5v-545q0 -20 -20.5 -36.5 t-46.5 -16.5q-29 0 -47.5 16.5t-18.5 36.5zM184 1304.5q0 51.5 60.5 84t120.5 32.5q53 0 135 -34.5t135 -34.5t92 29.5t51 29.5q18 0 29.5 -15.5t11.5 -31.5q0 -57 -57 -87t-115 -30q-55 0 -136 36t-136 36q-51 0 -96.5 -33t-55.5 -33q-39 0 -39 51.5z" />
<glyph unicode="&#xf2;" horiz-adv-x="958" d="M90 375v223q0 156 114.5 269.5t272.5 113.5t274.5 -112.5t116.5 -270.5v-223q0 -154 -117.5 -271.5t-273.5 -117.5q-154 0 -270.5 117.5t-116.5 271.5zM223 375q0 -104 75 -185t179 -81q106 0 182 80.5t76 185.5v223q0 100 -76.5 180t-181 80t-179.5 -80t-75 -180v-223z M311 1378q0 20 14.5 39t34.5 19q8 0 19 -6l227 -125q23 -10 23 -37q0 -23 -16.5 -40.5t-37.5 -17.5q-10 0 -20 7l-217 116q-27 12 -27 45z" />
<glyph unicode="&#xf3;" horiz-adv-x="958" d="M90 375v223q0 156 114.5 269.5t272.5 113.5t274.5 -112.5t116.5 -270.5v-223q0 -154 -117.5 -271.5t-273.5 -117.5q-154 0 -270.5 117.5t-116.5 271.5zM223 375q0 -104 75 -185t179 -81q106 0 182 80.5t76 185.5v223q0 100 -76.5 180t-181 80t-179.5 -80t-75 -180v-223z M322 1268q0 27 22 37l229 125q6 6 17 6q23 0 36 -17.5t13 -40.5q0 -33 -25 -45l-219 -116q-10 -6 -20 -7q-20 0 -36.5 17.5t-16.5 40.5z" />
<glyph unicode="&#xf4;" horiz-adv-x="958" d="M90 375v223q0 156 114.5 269.5t272.5 113.5t274.5 -112.5t116.5 -270.5v-223q0 -154 -117.5 -271.5t-273.5 -117.5q-154 0 -270.5 117.5t-116.5 271.5zM203 1266q0 31 26 45l213 114q16 10 35 10.5t35 -10.5l213 -114q27 -12 27 -47q0 -20 -12.5 -35t-28.5 -15 q-2 0 -21 7l-213 112l-213 -114l-18 -7q-16 0 -29.5 17t-13.5 37zM223 375q0 -104 75 -185t179 -81q106 0 182 80.5t76 185.5v223q0 100 -76.5 180t-181 80t-179.5 -80t-75 -180v-223z" />
<glyph unicode="&#xf5;" horiz-adv-x="958" d="M90 375v223q0 156 114.5 269.5t272.5 113.5t274.5 -112.5t116.5 -270.5v-223q0 -154 -117.5 -271.5t-273.5 -117.5q-154 0 -270.5 117.5t-116.5 271.5zM162 1304.5q0 51.5 60.5 84t119.5 32.5q53 0 135 -34.5t135.5 -34.5t92 29.5t51.5 29.5q18 0 29.5 -15.5t11.5 -31.5 q0 -57 -57.5 -87t-114.5 -30q-55 0 -136 36t-137 36q-51 0 -96 -33t-55 -33q-39 0 -39 51.5zM223 375q0 -104 75 -185t179 -81q106 0 182 80.5t76 185.5v223q0 100 -76.5 180t-181 80t-179.5 -80t-75 -180v-223z" />
<glyph unicode="&#xf6;" horiz-adv-x="958" d="M90 375v223q0 156 114.5 269.5t272.5 113.5t274.5 -112.5t116.5 -270.5v-223q0 -154 -117.5 -271.5t-273.5 -117.5q-154 0 -270.5 117.5t-116.5 271.5zM223 375q0 -104 75 -185t179 -81q106 0 182 80.5t76 185.5v223q0 100 -76.5 180t-181 80t-179.5 -80t-75 -180v-223z M279 1290q0 33 21.5 53.5t53.5 20.5q31 0 52.5 -20.5t21.5 -53.5q0 -31 -21.5 -53.5t-52.5 -22.5q-33 0 -54 22.5t-21 53.5zM530 1290q0 33 21.5 53.5t54.5 20.5t53.5 -20.5t20.5 -53.5q0 -31 -21.5 -53.5t-52.5 -22.5q-33 0 -54.5 22.5t-21.5 53.5z" />
<glyph unicode="&#xf7;" horiz-adv-x="923" d="M84 492q0 25 14.5 41t36.5 16h653q20 0 37 -16.5t17 -41t-16.5 -41t-37.5 -16.5h-653q-51 1 -51 58zM354 158q0 39 30 68.5t71 29.5t70.5 -29.5t29.5 -68.5t-29.5 -70t-70.5 -31t-71 31t-30 70zM354 827q0 39 30 69t71 30t70.5 -30t29.5 -69q0 -41 -29.5 -69.5 t-70.5 -28.5t-71 28.5t-30 69.5z" />
<glyph unicode="&#xf8;" horiz-adv-x="958" d="M90 375v223q0 156 114.5 269.5t272.5 113.5q104 0 199 -55l57 98q10 18 31 18q18 0 31.5 -13t13.5 -32q0 -16 -8 -26l-56 -97q123 -117 123 -276v-223q0 -154 -117.5 -271.5t-273.5 -117.5q-115 0 -207 63l-55 -94q-12 -20 -35 -21q-16 0 -28.5 11.5t-12.5 27.5 q0 12 8 23l60 104q-117 117 -117 275zM223 375q0 -88 51 -158l340 598q-66 43 -137 43q-104 0 -179 -80t-75 -180v-223zM332 158q66 -49 145 -49q106 0 182 80.5t76 185.5v223q0 82 -57 160z" />
<glyph unicode="&#xf9;" horiz-adv-x="1015" d="M119 371v547q0 18 19.5 34.5t47.5 16.5q25 0 45.5 -16.5t20.5 -34.5v-547q0 -102 75.5 -182t180 -80t180.5 79.5t76 182.5v549q0 20 20.5 34.5t47 14.5t46 -14.5t19.5 -34.5v-549q0 -154 -115.5 -269.5t-273.5 -115.5q-160 0 -274.5 115.5t-114.5 269.5zM340 1378 q0 20 14.5 39t34.5 19q8 0 19 -6l227 -125q23 -10 22 -37q0 -23 -16 -40.5t-37 -17.5q-10 0 -20 7l-217 116q-27 12 -27 45z" />
<glyph unicode="&#xfa;" horiz-adv-x="1015" d="M119 371v547q0 18 19.5 34.5t47.5 16.5q25 0 45.5 -16.5t20.5 -34.5v-547q0 -102 75.5 -182t180 -80t180.5 79.5t76 182.5v549q0 20 20.5 34.5t47 14.5t46 -14.5t19.5 -34.5v-549q0 -154 -115.5 -269.5t-273.5 -115.5q-160 0 -274.5 115.5t-114.5 269.5zM356 1268 q0 27 23 37l229 125q6 6 17 6q23 0 36 -17.5t13 -40.5q0 -33 -25 -45l-219 -116q-8 -6 -20 -7q-20 0 -37 17.5t-17 40.5z" />
<glyph unicode="&#xfb;" horiz-adv-x="1015" d="M119 371v547q0 18 19.5 34.5t47.5 16.5q25 0 45.5 -16.5t20.5 -34.5v-547q0 -102 75.5 -182t180 -80t180.5 79.5t76 182.5v549q0 20 20.5 34.5t47 14.5t46 -14.5t19.5 -34.5v-549q0 -154 -115.5 -269.5t-273.5 -115.5q-160 0 -274.5 115.5t-114.5 269.5zM233 1266 q0 31 27 45l213 114q16 10 34.5 10.5t35.5 -10.5l213 -114q27 -12 26 -47q0 -20 -12 -35t-29 -15q-2 0 -20 7l-213 112l-213 -114l-19 -7q-16 0 -29.5 17t-13.5 37z" />
<glyph unicode="&#xfc;" horiz-adv-x="1015" d="M119 371v547q0 18 19.5 34.5t47.5 16.5q25 0 45.5 -16.5t20.5 -34.5v-547q0 -102 75.5 -182t180 -80t180.5 79.5t76 182.5v549q0 20 20.5 34.5t47 14.5t46 -14.5t19.5 -34.5v-549q0 -154 -115.5 -269.5t-273.5 -115.5q-160 0 -274.5 115.5t-114.5 269.5zM307 1290 q0 33 21.5 53.5t54.5 20.5q31 0 52.5 -20.5t21.5 -53.5q0 -31 -21.5 -53.5t-52.5 -22.5q-33 0 -54.5 22.5t-21.5 53.5zM559 1290q0 33 21.5 53.5t54.5 20.5t53.5 -20.5t20.5 -53.5q0 -31 -21.5 -53.5t-52.5 -22.5q-33 0 -54.5 22.5t-21.5 53.5z" />
<glyph unicode="&#xfd;" horiz-adv-x="860" d="M29 918q0 25 26.5 44t55.5 19q39 0 47 -29l280 -753l264 753q12 29 46 29q27 0 54 -19.5t27 -46.5q0 -12 -4 -16l-317 -860l-37 -100q-10 -27 -40 -96.5t-50 -100.5l-53 -82q-35 -51 -67 -73.5t-77 -42t-92 -19.5q-61 0 -61 59q0 61 41 62q94 0 175 113.5t122 281.5 l-334 858q-6 11 -6 19zM295 1268q0 27 22 37l230 125q6 6 16 6q23 0 36 -17.5t13 -40.5q0 -33 -24 -45l-219 -116q-8 -6 -21 -7q-20 0 -36.5 17.5t-16.5 40.5z" />
<glyph unicode="&#xfe;" horiz-adv-x="993" d="M131 -424v1937q0 20 18.5 35t47 15t48 -14.5t19.5 -35.5v-688q37 66 106.5 111t164.5 45q152 0 260 -112.5t108 -270.5v-223q0 -154 -109.5 -271.5t-252.5 -117.5q-90 0 -166 46t-111 111v-567q0 -18 -19.5 -34.5t-47.5 -16.5q-27 0 -46.5 16.5t-19.5 34.5zM264 311 q0 -55 77 -128.5t175 -73.5q100 0 177 81.5t77 184.5v223q0 100 -77 180t-181 80q-98 0 -173 -71.5t-75 -188.5v-287z" />
<glyph unicode="&#xff;" horiz-adv-x="860" d="M29 918q0 25 26.5 44t55.5 19q39 0 47 -29l280 -753l264 753q12 29 46 29q27 0 54 -19.5t27 -46.5q0 -12 -4 -16l-317 -860l-37 -100q-10 -27 -40 -96.5t-50 -100.5l-53 -82q-35 -51 -67 -73.5t-77 -42t-92 -19.5q-61 0 -61 59q0 61 41 62q94 0 175 113.5t122 281.5 l-334 858q-6 11 -6 19zM236 1290q0 33 21.5 53.5t53.5 20.5q31 0 52.5 -20.5t21.5 -53.5q0 -31 -21.5 -53.5t-52.5 -22.5q-33 0 -54 22.5t-21 53.5zM487 1290q0 33 21.5 53.5t54.5 20.5t53.5 -20.5t20.5 -53.5q0 -31 -21.5 -53.5t-52.5 -22.5q-33 0 -54.5 22.5t-21.5 53.5z " />
<glyph unicode="&#x152;" horiz-adv-x="1720" d="M139 426v635q0 225 110.5 330.5t299.5 105.5q225 0 319 -147v96q0 25 19.5 38t44.5 13h694q49 0 49 -59q0 -66 -49 -66h-635v-563h301q49 0 49 -61q0 -55 -49 -56h-301v-567h635q49 0 49 -64q0 -61 -49 -61h-694q-25 0 -44.5 14.5t-19.5 38.5v84q-94 -150 -319 -149 q-188 0 -299 105.5t-111 332.5zM274 426q0 -313 291 -313t291 313v635q0 311 -291 311t-291 -311v-635z" />
<glyph unicode="&#x153;" horiz-adv-x="1579" d="M90 375v223q0 156 114.5 269.5t272.5 113.5q102 0 190.5 -53.5t137.5 -141.5q49 88 135 141.5t186 53.5q156 0 268.5 -106.5t112.5 -264.5q0 -57 -13 -93t-42 -50t-53.5 -18.5t-67.5 -4.5h-463v-75q0 -121 87 -194t229 -73q70 0 118 20.5t75.5 41t45.5 20.5 q25 0 42.5 -20.5t17.5 -44.5q0 -41 -92.5 -87t-217 -46t-222 52t-148.5 144q-51 -88 -138 -142t-188 -54q-154 0 -270.5 117.5t-116.5 271.5zM223 375q0 -104 75 -185t179 -81q106 0 182 80.5t76 185.5v223q0 100 -76.5 180t-181 80t-179.5 -80t-75 -180v-223zM868 543h410 q61 0 81.5 13t20.5 56q0 102 -72.5 180t-183.5 78q-106 0 -181 -71.5t-75 -171.5v-84z" />
<glyph unicode="&#x178;" horiz-adv-x="1087" d="M39 1440q0 25 23.5 41t50.5 16q33 0 53 -41l377 -747l379 747q20 41 53 41q27 0 50.5 -16.5t23.5 -40.5q0 -18 -9 -37l-426 -813q-4 -12 -4 -17v-520q0 -25 -19.5 -39t-47.5 -14q-27 0 -47.5 14.5t-20.5 38.5v520q0 10 -2 17l-424 813q-10 19 -10 37zM344 1810 q0 33 21.5 53.5t54.5 20.5q31 0 52.5 -20.5t21.5 -53.5q0 -31 -21.5 -53t-52.5 -22q-33 0 -54.5 22t-21.5 53zM596 1810q0 33 21.5 53.5t54.5 20.5t53 -20.5t20 -53.5q0 -31 -21.5 -53t-51.5 -22q-33 0 -54.5 22t-21.5 53z" />
<glyph unicode="&#x2c6;" horiz-adv-x="548" d="M0 1266q0 31 27 45l213 114q16 10 34.5 10.5t34.5 -10.5l213 -114q27 -12 27 -47q0 -20 -12.5 -35t-28.5 -15q-2 0 -21 7l-213 112l-213 -114l-18 -7q-16 0 -29.5 17t-13.5 37z" />
<glyph unicode="&#x2dc;" horiz-adv-x="634" d="M0 1304.5q0 51.5 60.5 84t119.5 32.5q53 0 135 -34.5t135.5 -34.5t92.5 29.5t51 29.5q18 0 29.5 -15.5t11.5 -31.5q0 -57 -57.5 -87t-114.5 -30q-55 0 -136 36t-137 36q-51 0 -96 -33t-55 -33q-39 0 -39 51.5z" />
<glyph unicode="&#x2000;" horiz-adv-x="1046" />
<glyph unicode="&#x2001;" horiz-adv-x="2093" />
<glyph unicode="&#x2002;" horiz-adv-x="1046" />
<glyph unicode="&#x2003;" horiz-adv-x="2093" />
<glyph unicode="&#x2004;" horiz-adv-x="697" />
<glyph unicode="&#x2005;" horiz-adv-x="523" />
<glyph unicode="&#x2006;" horiz-adv-x="348" />
<glyph unicode="&#x2007;" horiz-adv-x="348" />
<glyph unicode="&#x2008;" horiz-adv-x="261" />
<glyph unicode="&#x2009;" horiz-adv-x="418" />
<glyph unicode="&#x200a;" horiz-adv-x="116" />
<glyph unicode="&#x2010;" horiz-adv-x="845" d="M106 492q0 27 14.5 44t37.5 17h532q20 0 35.5 -17.5t15.5 -43.5q0 -25 -15 -41.5t-36 -16.5h-532q-52 1 -52 58z" />
<glyph unicode="&#x2011;" horiz-adv-x="845" d="M106 492q0 27 14.5 44t37.5 17h532q20 0 35.5 -17.5t15.5 -43.5q0 -25 -15 -41.5t-36 -16.5h-532q-52 1 -52 58z" />
<glyph unicode="&#x2012;" horiz-adv-x="845" d="M106 492q0 27 14.5 44t37.5 17h532q20 0 35.5 -17.5t15.5 -43.5q0 -25 -15 -41.5t-36 -16.5h-532q-52 1 -52 58z" />
<glyph unicode="&#x2013;" horiz-adv-x="968" d="M106 492q0 27 14.5 44t37.5 17h655q20 0 35.5 -17.5t15.5 -43.5q0 -25 -15 -41.5t-36 -16.5h-655q-52 1 -52 58z" />
<glyph unicode="&#x2014;" horiz-adv-x="1544" d="M106 492q0 27 14.5 44t37.5 17h1228q20 0 37 -18.5t17 -43t-16.5 -41t-37.5 -16.5h-1228q-52 1 -52 58z" />
<glyph unicode="&#x2018;" horiz-adv-x="327" d="M68 1262q0 55 82 231q12 25 36 25q18 0 34 -12.5t16 -30.5q0 -10 -3 -17l-40 -106q61 -25 61 -88q0 -41 -27.5 -69t-66.5 -28t-65.5 28t-26.5 67z" />
<glyph unicode="&#x2019;" horiz-adv-x="323" d="M74 1423q0 39 27.5 67t66.5 28t66.5 -28t27.5 -67q0 -45 -82 -231q-12 -25 -37 -25q-20 0 -35.5 12.5t-15.5 30.5q0 12 4 19l41 106q-29 10 -46 34.5t-17 53.5z" />
<glyph unicode="&#x201a;" horiz-adv-x="350" d="M82 82q0 41 26.5 68.5t67.5 27.5q37 0 64.5 -27.5t27.5 -66.5q0 -55 -82 -231q-12 -25 -36 -25q-18 0 -35 12.5t-17 30.5q0 4 4 16l41 107q-61 25 -61 88z" />
<glyph unicode="&#x201c;" horiz-adv-x="636" d="M68 1262q0 51 84 231q8 25 36 25q18 0 34 -12.5t16 -30.5q0 -10 -5 -17l-38 -106q61 -25 61 -88q0 -41 -27.5 -69t-66.5 -28t-66.5 28t-27.5 67zM377 1262q0 55 82 231q12 25 37 25q18 0 34.5 -12.5t16.5 -30.5q0 -4 -4 -17l-41 -106q61 -25 61 -88q0 -41 -26.5 -69 t-67.5 -28q-37 0 -64.5 28t-27.5 67z" />
<glyph unicode="&#x201d;" horiz-adv-x="632" d="M76 1423q0 39 27.5 67t66.5 28t66.5 -28t27.5 -67q0 -47 -84 -231q-8 -25 -37 -25q-18 0 -33.5 12.5t-15.5 30.5q0 12 4 19l39 106q-61 20 -61 88zM385 1423q0 39 26.5 67t67.5 28q37 0 64.5 -28t27.5 -67q0 -53 -82 -231q-12 -25 -36 -25q-18 0 -35 12.5t-17 30.5 q0 6 5 19l40 106q-61 20 -61 88z" />
<glyph unicode="&#x201e;" horiz-adv-x="659" d="M82 82q0 41 26.5 68.5t67.5 27.5q37 0 64.5 -27.5t27.5 -66.5q0 -55 -82 -231q-12 -25 -36 -25q-18 0 -35 12.5t-17 30.5q0 4 4 16l41 107q-61 25 -61 88zM389 82q0 41 27.5 68.5t66.5 27.5t67 -27.5t28 -66.5q0 -51 -84 -231q-10 -25 -37 -25q-18 0 -33.5 12.5 t-15.5 30.5q0 10 4 16l39 107q-62 25 -62 88z" />
<glyph unicode="&#x2022;" horiz-adv-x="636" d="M100 614q0 84 65.5 148.5t154 64.5t154 -64.5t65.5 -148.5q0 -86 -65.5 -149.5t-154 -63.5t-154 63.5t-65.5 149.5z" />
<glyph unicode="&#x2026;" horiz-adv-x="1091" d="M82 82q0 41 26.5 68.5t67.5 27.5q37 0 64.5 -28.5t27.5 -67.5q0 -37 -27.5 -65.5t-64.5 -28.5q-41 0 -67.5 27.5t-26.5 66.5zM455 82q0 41 26.5 68.5t67.5 27.5q37 0 64.5 -28.5t27.5 -67.5q0 -37 -27.5 -65.5t-64.5 -28.5q-41 0 -67.5 27.5t-26.5 66.5zM825 82 q0 41 27 68.5t68 27.5q37 0 64.5 -28.5t27.5 -67.5q0 -37 -28 -65.5t-64 -28.5q-41 0 -68 27.5t-27 66.5z" />
<glyph unicode="&#x202f;" horiz-adv-x="418" />
<glyph unicode="&#x2039;" horiz-adv-x="481" d="M72 567q0 18 20 58l182 336q12 25 48 24q29 0 52 -21.5t23 -43.5q0 -10 -6 -23l-178 -330l178 -327q6 -12 6 -23q0 -25 -23.5 -45t-54 -20t-45.5 24l-182 336q-20 41 -20 55z" />
<glyph unicode="&#x203a;" horiz-adv-x="481" d="M84 217q0 10 6 23l176 327l-176 330q-6 12 -6 23q0 23 22.5 44t51.5 21q39 0 47 -24l182 -336q23 -45 23 -58q0 -14 -23 -55l-182 -336q-10 -25 -43 -24q-31 0 -54.5 20t-23.5 45z" />
<glyph unicode="&#x205f;" horiz-adv-x="523" />
<glyph unicode="&#x20ac;" horiz-adv-x="1191" d="M66 569.5q0 22.5 14 39t37 16.5h127v196h-127q-23 0 -37 15.5t-14 38t14 39t37 16.5h127v131q0 225 115.5 330.5t308 105.5t310.5 -99.5t118 -254.5q0 -68 -67.5 -68t-67.5 49q0 115 -79 181.5t-212 66.5q-291 0 -291 -311v-131h346q20 0 36.5 -16.5t16.5 -39t-16.5 -38 t-36.5 -15.5h-346v-196h346q20 0 36.5 -16.5t16.5 -39t-16.5 -38t-36.5 -15.5h-346v-100q0 -141 73.5 -222t219.5 -81q131 0 210 67.5t79 184.5q2 51 67 51q68 0 68 -68q0 -158 -118 -259t-310 -101q-195 0 -309.5 107.5t-114.5 320.5v100h-127q-23 0 -37 15.5t-14 38z" />
<glyph unicode="&#x2122;" horiz-adv-x="1282" d="M86 1528q0 45 33 45h403q31 0 31 -45q0 -47 -31 -47h-153v-477q0 -35 -47 -35q-51 0 -52 35v477h-151q-33 0 -33 47zM608 1004v520q0 49 49 49q47 0 74 -62l143 -325l146 325q27 61 74 62q49 0 49 -49v-520q0 -35 -49 -35q-47 0 -47 35v364l-138 -309q-12 -27 -35 -27 q-25 0 -32 27l-137 313v-368q0 -35 -48 -35q-49 0 -49 35z" />
<glyph unicode="&#xe000;" horiz-adv-x="983" d="M0 0v983h983v-983h-983z" />
</font>
</defs>
</svg>
